Девять несчастий / Gyakkyo nine (Эйитиро Хасуми / Eiichiro Hasumi) [2005, япония, комедия, спорт, DVDRip] VO (aleksei80)

Ответить на тему
 
Автор Сообщение

user ®

Стаж: 11 лет

Сообщений: 15151

Пост Пост: #1 от 31-Дек-2013 21:40

[Цитировать]

Девять несчастий / Gyakkyo nine
Страна: япония
Жанр: комедия, спорт
Год выпуска: 2005
Продолжительность: 01:55:30
Перевод: Одноголосый закадровый aleksei80
Cубтитры: нет
Режиссер: Эйитиро Хасуми / Eiichiro Hasumi
В ролях: Hiroshi Fujioka - Principal
Arata Furuta
Yusuke Hirayama
Maki Horikita - Akiko Tsukita
Akio Kaneda
Hisahiro Ogura
Makoto Sakamoto
Tetsuji Tamayama - Toshi Fukutsu
Naoki Tanaka - Go Sakakibara
Keiko Utsumi
Rakuto Tochihara
Sogen Tanaka
Описание: Вот несчастье! Единственное слово, которое имеет значение для Тоши - это "бейсбол", ведь он капитан команды "All-out" старшей школы. Но поскольку на счету команды сплошные поражения и ни одной победы, то их руководитель ясно объяснил Тоши, что их время прошло. Их драгоценная территория для бейсбола будет передана футбольной команде. Но ничего не заставляет Тоши действовать так, как проблемы, ведь его фамилия - Фукутсу, что означает "Боевой дух", и он демонстративно заявляет руководителю, что их команда бросит вызов бесспорным чемпионам, "Sunrigh High". И если команда "All-out" победит, то они сохранят своё поле. Товарищи по команде изначально не разделяют мнение Тоши относительно их победы, но благодаря небольшой поддержке, Тоши всё-таки заставляет их противостоять "Sunright High".
Сэмпл: http://multi-up.com/936133
Качество видео: DVDRip
Формат видео: AVI
Видео: XVID, 720x320, 2.25:1, 23.976 fps, 1 305 Kbps
Аудио: MP3, 44.1 KHz, 192 Kbps, 2 channels

MediaInfo

General
Complete name : C:\Users\котэ\Downloads\раздача на рутрекере\Gyakkyo nine.avi
Format : AVI
Format/Info : Audio Video Interleave
File size : 1.22 GiB
Duration : 1h 55mn
Overall bit rate : 1 506 Kbps
Writing application : VirtualDubMod 1.5.4.1 (build 2178/release)
Writing library : VirtualDub build 32842/release
Video
ID : 0
Format : MPEG-4 Visual
Format profile : Advanced Simple@L5
Format settings, BVOP : 1
Format settings, QPel : No
Format settings, GMC : No warppoints
Format settings, Matrix : Default (H.263)
Muxing mode : Packed bitstream
Codec ID : XVID
Codec ID/Hint : XviD
Duration : 1h 55mn
Bit rate : 1 305 Kbps
Width : 720 pixels
Height : 320 pixels
Display aspect ratio : 2.25:1
Frame rate : 23.976 fps
Color space : YUV
Chroma subsampling : 4:2:0
Bit depth : 8 bits
Scan type : Progressive
Compression mode : Lossy
Bits/(Pixel*Frame) : 0.236
Stream size : 1.05 GiB (87%)
Writing library : XviD 1.3.0.dev55
Audio
ID : 1
Format : MPEG Audio
Format version : Version 1
Format profile : Layer 3
Mode : Joint stereo
Mode extension : MS Stereo
Codec ID : 55
Codec ID/Hint : MP3
Duration : 1h 55mn
Bit rate mode : Constant
Bit rate : 192 Kbps
Channel(s) : 2 channels
Sampling rate : 44.1 KHz
Compression mode : Lossy
Stream size : 159 MiB (13%)
Alignment : Split accross interleaves
Interleave, duration : 42 ms (1.00 video frame)
Interleave, preload duration : 500 ms
Writing library : LAME3.97

Скриншот c названием фильма

Скачать

Скачать торрент! Девять несчастий / Gyakkyo nine (Эйитиро Хасуми / Eiichiro Hasumi) [2005, япония, комедия, спорт, DVDRip] VO (aleksei80)

Как скачивать? · Что такое торрент? · Рейтинг и ограничения

Сайт не распространяет и не хранит электронные версии произведений, а лишь предоставляет доступ к создаваемому пользователями каталогу ссылок на торрент-файлы, которые содержат только списки хеш-сумм

[Профиль] [ЛС]
Показать сообщения:    
Ответить на тему

Текущее время: Сегодня 12:19

Часовой пояс: GMT + 4



Вы не можете начинать темы
Вы не можете отвечать на сообщения
Вы не можете редактировать свои сообщения
Вы не можете удалять свои сообщения
Вы не можете голосовать в опросах
Вы не можете прикреплять файлы к сообщениям
Вы не можете скачивать файлы