Неправильные копы / Wrong cops (Квентин Дюпьё / Quentin Dupieux) [2013, США, пародия, DVDRip] VO (den904)

Ответить на тему
 
Автор Сообщение

user ®

Стаж: 7 лет 7 месяцев

Сообщений: 20008

Пост Пост: #1 от 31-Дек-2013 21:40

[Цитировать]

Неправильные копы / Wrong cops
Страна: США
Жанр: пародия
Год выпуска: 2013
Продолжительность: 01:22:10
Перевод: одноголосый закадровый den904,
перевод на русский язык Северный
Оригинальная аудиодорожка: нет
Режиссер: Квентин Дюпьё / Quentin Dupieux
В ролях: Марк Бёрнэм, Эрик Жюдор, Стив Литтл, Мэрилин Мэнсон, Эрик Робертс, Грейс Забриски, Арден Майрин, Эрик Верхейм, Изабелла Пальмиери, Дэниэл Куинн
Описание: Несколько не очень хороших полицейских пытаются избавиться от тела человека, которого один из них случайно застрелил.


Качество видео: DVDRip
Формат видео: AVI
Видео: Xvid 640x272 29.97fps 1046Kbps
Аудио: MPEG Audio Layer 3 48000Hz stereo 160Kbps
Сэмпл: http://www.sendspace.com/file/pvrj9r

MediaInfo

General
Complete name : D:\TORRENTS\Неправильные копы.avi
Format : AVI
Format/Info : Audio Video Interleave
File size : 716 MiB
Duration : 1h 22mn
Overall bit rate : 1 218 Kbps
Video
ID : 0
Format : MPEG-4 Visual
Format profile : Advanced Simple@L5
Format settings, BVOP : 2
Format settings, QPel : No
Format settings, GMC : No warppoints
Format settings, Matrix : Default (H.263)
Codec ID : XVID
Codec ID/Hint : XviD
Duration : 1h 22mn
Bit rate : 1 046 Kbps
Width : 640 pixels
Height : 272 pixels
Display aspect ratio : 2.35:1
Frame rate : 29.970 fps
Color space : YUV
Chroma subsampling : 4:2:0
Bit depth : 8 bits
Scan type : Progressive
Compression mode : Lossy
Bits/(Pixel*Frame) : 0.201
Stream size : 615 MiB (86%)
Writing library : XviD 1.2.1 (UTC 2008-12-04)
Audio
ID : 1
Format : MPEG Audio
Format version : Version 1
Format profile : Layer 3
Mode : Joint stereo
Codec ID : 55
Codec ID/Hint : MP3
Duration : 1h 22mn
Source duration : 1h 22mn
Bit rate mode : Constant
Bit rate : 160 Kbps
Channel(s) : 2 channels
Sampling rate : 48.0 KHz
Compression mode : Lossy
Stream size : 94.0 MiB (13%)
Alignment : Aligned on interleaves
Interleave, duration : 33 ms (1.00 video frame)

Скриншот c названием фильма

Скриншоты

Скачать

Скачать торрент!

Как скачивать? · Что такое торрент? · Рейтинг и ограничения

Сайт не распространяет и не хранит электронные версии произведений, а лишь предоставляет доступ к создаваемому пользователями каталогу ссылок на торрент-файлы, которые содержат только списки хеш-сумм

[Профиль] [ЛС]
Показать сообщения:    
Ответить на тему

Текущее время: Сегодня 02:19

Часовой пояс: GMT + 4



Вы не можете начинать темы
Вы не можете отвечать на сообщения
Вы не можете редактировать свои сообщения
Вы не можете удалять свои сообщения
Вы не можете голосовать в опросах
Вы не можете прикреплять файлы к сообщениям
Вы не можете скачивать файлы