Боб Строитель: Незабываемое Рождество / Bob the Builder: A Christmas to Remember (Сара Болл / Sarah Ball) [2001, Детский мультфильм, DVDRip] Dub + Original Eng

Ответить на тему
 
Автор Сообщение

user ®

Стаж: 13 лет

Сообщений: 15041

Пост Пост: #1 от 30-Дек-2013 22:35

[Цитировать]

Боб Строитель: Незабываемое Рождество
Bob the Builder: A Christmas to Remember
Страна: Великобритания
Жанр: Детский мультфильм
Продолжительность: 0:50:28
Год выпуска: 2001
Перевод: Профессиональный (дублированный)
Русские субтитры: нет
Режиссёр: Сара Болл / Sarah Ball-Описание: Рождественские приключения веселого и необыкновенно трудолюбивого строителя по имени Боб. Несмотря на то, что близится Рождество, Боб-строитель и не думает отдыхать, ведь вся подготовка к празднованию поручена ему.
В маленький городок, в котором живет Боб-строитель, на рождественские гастроли приезжает известный певец Элтон Джон со своей группой. Бобу поручают построить красивую сцену, подготовить фейерверки, появиться перед жителями города в костюме Санта Клауса и вручить им рождественские подарки. К сожалению, поначалу все идет не очень гладко, но Боб не отчаивается — с помощью друзей он сумеет подарить жителям города настоящий незабываемый праздник!
-Качество: DVDRip
Формат: AVI
Видео: XviD, 640x368 (1.74:1), 25 fps, ~1800 kbps
Аудио 1: mp3, 48 kHz, 2 ch, ~128 kbps (Rus)
Аудио 2: mp3, 48 kHz, 2 ch, ~128 kbps (Eng)
Субтитры: отсутствуют

Подробные технические данные

ОбщееПолное имя : E:\MULTFILMS\Bob The Builder - A Christmas to Remember (2001).aviФормат : AVIФормат/Информация : Audio Video InterleaveРазмер файла : 750 МбайтПродолжительность : 50 м.Общий поток : 2078 Кбит/секПрограмма кодирования : VirtualDubMod 1.5.10.2 (build 2542/release)Библиотека кодирования : VirtualDubMod build 2542/release
ВидеоИдентификатор : 0Формат : MPEG-4 VisualПрофиль формата : Advanced Simple@L5Параметр BVOP формата : 2Параметр QPel формата : НетПараметр GMC формата : Без точки переходаПараметр матрицы формата : ВыборочнаяИдентификатор кодека : XVIDИдентификатор кодека/Подсказка : XviDПродолжительность : 50 м.Битрейт : 1808 Кбит/секШирина : 640 пикселейВысота : 368 пикселейСоотношение сторон : 1,739Частота кадров : 25,000 кадров/секЦветовое пространство : YUVСубдискретизация насыщенности : 4:2:0Битовая глубина : 8 битТип развёртки : ПрогрессивнаяМетод сжатия : С потерямиБит/(Пиксели*Кадры) : 0.307Размер потока : 653 Мбайт (87%)Библиотека кодирования : XviD 1.1.2 (UTC 2006-11-01)
Аудио #1Идентификатор : 1Формат : MPEG AudioВерсия формата : Version 1Профиль формата : Layer 3Режим : Joint stereoРасширение режима : MS StereoИдентификатор кодека : 55Идентификатор кодека/Подсказка : MP3Продолжительность : 50 м.Вид битрейта : ПостоянныйБитрейт : 128 Кбит/секКаналы : 2 каналаЧастота : 48,0 КГцМетод сжатия : С потерямиЗадержка видео : 8 мс.Размер потока : 46,1 Мбайт (6%)Выравнивание : Разделение по промежуткамПродолжительность промежутка : 40 мс. (1,00 видеокадр)Время предзагрузки промежутка : 500 мс.
Аудио #2Идентификатор : 2Формат : MPEG AudioВерсия формата : Version 1Профиль формата : Layer 3Режим : Joint stereoРасширение режима : MS StereoИдентификатор кодека : 55Идентификатор кодека/Подсказка : MP3Продолжительность : 50 м.Вид битрейта : ПостоянныйБитрейт : 128 Кбит/секКаналы : 2 каналаЧастота : 48,0 КГцМетод сжатия : С потерямиРазмер потока : 46,2 Мбайт (6%)Выравнивание : Разделение по промежуткамПродолжительность промежутка : 40 мс. (1,00 видеокадр)Время предзагрузки промежутка : 500 мс.

Скриншоты


Скачать

Скачать торрент! Боб Строитель: Незабываемое Рождество / Bob the Builder: A Christmas to Remember (Сара Болл / Sarah Ball) [2001, Детский мультфильм, DVDRip] Dub + Original Eng

Как скачивать? · Что такое торрент? · Рейтинг и ограничения

Сайт не распространяет и не хранит электронные версии произведений, а лишь предоставляет доступ к создаваемому пользователями каталогу ссылок на торрент-файлы, которые содержат только списки хеш-сумм

[Профиль] [ЛС]
Показать сообщения:    
Ответить на тему

Текущее время: Сегодня 19:42

Часовой пояс: GMT + 4



Вы не можете начинать темы
Вы не можете отвечать на сообщения
Вы не можете редактировать свои сообщения
Вы не можете удалять свои сообщения
Вы не можете голосовать в опросах
Вы не можете прикреплять файлы к сообщениям
Вы не можете скачивать файлы