Куклы / Dolls (Стюарт Гордон / Stuart Gordon) [1987, США, ужасы, мистика, HDTV 1080i] 2x DVO (НТВ+, НТВ) + 2x AVO (Санаев, Володарский) + original (eng) + 2xCommentary (eng) + sub (eng)

Ответить на тему
 
Автор Сообщение

user ®

Стаж: 8 лет 7 месяцев

Сообщений: 20007

Пост Пост: #1 от 30-Дек-2013 22:35

[Цитировать]

Куклы / Dolls
Год выпуска: 1987
Страна: США
Жанр: ужасы, мистика
Продолжительность: 01:14:18
Перевод1: Профессиональный (двухголосый, закадровый)(НТВ+)
Перевод2: Профессиональный (двухголосый, закадровый)(НТВ)
Перевод4: Авторский (одноголосый, закадровый)(П.Санаев)
Перевод3: Авторский (одноголосый, закадровый)(Л.Володарский)
Субтитры: английские
Оригинальная аудиодорожка: английский
Режиссер: Стюарт Гордон / Stuart Gordon
В ролях: Cтивен Ли, Ги Ральф, Хилари Мэйсон, Кэролин Берди Гордон, Йен Патрик Уильямс, Кэйси Стюарт, Кэрри Лорейн
Описание: Застигнутые ненастьем путешественники попадают в усадьбу в лесу, где проживает странная пожилая пара. Созданные этими супругами куклы обладают способностью оживать и даже убивать тех, кто им не нравится…

Качество: HDTV 1080i
Формат: MKV
Видео кодек: H.264
Аудио кодек: AC3
Видео: 1920 x 1080; 25 fps; 6 640Kbps
Аудио1: Русский, AC3 2.0 192 Kbps 48,0 КГц(NTV+)
Аудио2: Русский, AC3 2.0 192 Kbps 48,0 КГц(NTV)
Аудио3: Русский, AC3 2.0 192 Kbps 48,0 КГц(Sanaev)
Аудио4: Русский, AC3 2.0 192 Kbps 48,0 КГц(Volodarskiy)
Аудио5: English, AC3 2.0 192 Kbps 48,0 КГц(Director's commentary)
Аудио6: English, AC3 2.0 192 Kbps 48,0 КГц(Actors' commentary)
Аудио7: English, AC3 2.0 384 Kbps 48,0 КГц(Original)
Субтитры: SoftSub (SRT)

MediaInfo

D:\HDFILMS\Dolls.1987.HDTV.1080i.4xRus.Eng.mkv
General
Unique ID : 244415312162467906862491157095331438971 (0xB7E0AD467011ADACBD7241F5AC1CA17B)
Complete name : D:\HDFILMS\Dolls.1987.HDTV.1080i.4xRus.Eng.mkv
Format : Matroska
File size : 4.33 GiB
Duration : 1h 14mn
Overall bit rate : 8 342 Kbps
Movie name : Dolls
Encoded date : UTC 2013-12-28 17:43:45
Writing application : mkvmerge v6.2.0 ('Promised Land') built on Apr 28 2013 12:22:01
Writing library : libebml v1.3.0 + libmatroska v1.4.0
Video #1
ID : 1
Format : AVC
Format/Info : Advanced Video Codec
Format profile : High@L4.0
Format settings, CABAC : Yes
Format settings, ReFrames : 4 frames
Format settings, GOP : M=1, N=12
Codec ID : V_MPEG4/ISO/AVC
Duration : 1h 14mn
Bit rate : 6 640 Kbps
Width : 1 920 pixels
Height : 1 080 pixels
Display aspect ratio : 16:9
Frame rate : 50.000 fps
Original frame rate : 25.000 fps
Standard : Component
Color space : YUV
Chroma subsampling : 4:2:0
Bit depth : 8 bits
Scan type : Interlaced
Scan order : Top Field First
Bits/(Pixel*Frame) : 0.064
Stream size : 3.45 GiB (80%)
Title : Dolls 1987 1080p HDTV H.264 DD2.0-saMMie
Color primaries : BT.709-5, BT.1361, IEC 61966-2-4, SMPTE RP177
Transfer characteristics : BT.709-5, BT.1361
Matrix coefficients : BT.709-5, BT.1361, IEC 61966-2-4 709, SMPTE RP177
Audio #2
ID : 2
Format : AC-3
Format/Info : Audio Coding 3
Mode extension : CM (complete main)
Codec ID : A_AC3
Duration : 1h 14mn
Bit rate mode : Constant
Bit rate : 192 Kbps
Channel(s) : 2 channels
Channel positions : Front: L R
Sampling rate : 48.0 KHz
Bit depth : 16 bits
Compression mode : Lossy
Stream size : 102 MiB (2%)
Title : NTV+ AC3 2.0 192 kbps
Language : Russian
Audio #3
ID : 3
Format : AC-3
Format/Info : Audio Coding 3
Mode extension : CM (complete main)
Codec ID : A_AC3
Duration : 1h 14mn
Bit rate mode : Constant
Bit rate : 192 Kbps
Channel(s) : 2 channels
Channel positions : Front: L R
Sampling rate : 48.0 KHz
Bit depth : 16 bits
Compression mode : Lossy
Stream size : 102 MiB (2%)
Title : NTV AC3 2.0 192 kbps
Language : Russian
Audio #4
ID : 4
Format : AC-3
Format/Info : Audio Coding 3
Mode extension : CM (complete main)
Codec ID : A_AC3
Duration : 1h 14mn
Bit rate mode : Constant
Bit rate : 192 Kbps
Channel(s) : 2 channels
Channel positions : Front: L R
Sampling rate : 48.0 KHz
Bit depth : 16 bits
Compression mode : Lossy
Stream size : 102 MiB (2%)
Title : Sanaev AC3 2.0 192 kbps
Language : Russian
Audio #5
ID : 5
Format : AC-3
Format/Info : Audio Coding 3
Mode extension : CM (complete main)
Codec ID : A_AC3
Duration : 1h 14mn
Bit rate mode : Constant
Bit rate : 192 Kbps
Channel(s) : 2 channels
Channel positions : Front: L R
Sampling rate : 48.0 KHz
Bit depth : 16 bits
Compression mode : Lossy
Stream size : 102 MiB (2%)
Title : Volodarskiy AC3 2.0.192 kbps
Language : Russian
Audio #6
ID : 6
Format : AC-3
Format/Info : Audio Coding 3
Mode extension : CM (complete main)
Codec ID : A_AC3
Duration : 1h 14mn
Bit rate mode : Constant
Bit rate : 384 Kbps
Channel(s) : 2 channels
Channel positions : Front: L R
Sampling rate : 48.0 KHz
Bit depth : 16 bits
Compression mode : Lossy
Stream size : 204 MiB (5%)
Title : Original AC3 2.0 384 kbps
Language : English
Audio #7
ID : 7
Format : AC-3
Format/Info : Audio Coding 3
Mode extension : CM (complete main)
Codec ID : A_AC3
Duration : 1h 14mn
Bit rate mode : Constant
Bit rate : 192 Kbps
Channel(s) : 2 channels
Channel positions : Front: L R
Sampling rate : 48.0 KHz
Bit depth : 16 bits
Compression mode : Lossy
Stream size : 102 MiB (2%)
Title : Director's commentary AC3 2.0 192 kbps
Language : English
Audio #8
ID : 8
Format : AC-3
Format/Info : Audio Coding 3
Mode extension : CM (complete main)
Codec ID : A_AC3
Duration : 1h 14mn
Bit rate mode : Constant
Bit rate : 192 Kbps
Channel(s) : 2 channels
Channel positions : Front: L R
Sampling rate : 48.0 KHz
Bit depth : 16 bits
Compression mode : Lossy
Stream size : 102 MiB (2%)
Title : Actors' commentary AC3 2.0 192 kbps
Language : English
Text #9
ID : 9
Format : UTF-8
Codec ID : S_TEXT/UTF8
Codec ID/Info : UTF-8 Plain Text
Language : English

Скриншоты



Скачать

Скачать торрент!

Как скачивать? · Что такое торрент? · Рейтинг и ограничения

Сайт не распространяет и не хранит электронные версии произведений, а лишь предоставляет доступ к создаваемому пользователями каталогу ссылок на торрент-файлы, которые содержат только списки хеш-сумм

[Профиль] [ЛС]
Показать сообщения:    
Ответить на тему

Текущее время: Сегодня 22:30

Часовой пояс: GMT + 4



Вы не можете начинать темы
Вы не можете отвечать на сообщения
Вы не можете редактировать свои сообщения
Вы не можете удалять свои сообщения
Вы не можете голосовать в опросах
Вы не можете прикреплять файлы к сообщениям
Вы не можете скачивать файлы