Идеальное убийство (Андрей Хрулев) [2013, Детектив, SATRip]

Ответить на тему
 
Автор Сообщение

user ®

Стаж: 7 лет 7 месяцев

Сообщений: 20008

Пост Пост: #1 от 30-Дек-2013 22:35

[Цитировать]

Идеальное убийство
Год выпуска: 2013
Жанр: Детектив
Продолжительность: 01:25:11
Режиссёр: Андрей Хрулев
В ролях: Валерий Николаев, Светлана Иванова, Антонина Дивина, Антон Яковлев (III), Алексей Лонгин, Александр Горелов (II)
Описание: Ольга хотела быть счастливой. И у ее счастья есть совершенно четкие определения: успешный муж, полный достаток в доме, дорогая одежда, возможность путешествовать и ни от кого не зависеть. В ее детском доме все было по-другому и его воспитанникам оставалось только мечтать. Каждый о своем, а ей уже давно удалось вывести свою формулу счастья. Она стремилась к нему, и она его получила...
Известный адвокат Сергей Арзамасов берется за бракоразводное дело Ольги Лавровой, которая ежедневно подвергается насилию со стороны своего супруга Игоря и которую тот жестоко избивает. И первый раз в жизни он идет вопреки сложившимся этическим и профессиональным принципам, бросается в водоворот своих желаний. Она ведь так интересна, так многогранна и беззащитна.
Их бурный роман вспыхивает как пламя, которое уже не загасить. Однажды любовников застает муж Ольги, и между ним и Сергеем завязывается драка. Пытаясь защитить Арзамасова, Ольга убивает мужа. Теперь Сергею предстоит защищать Ольгу в суде.


Исходник: [url=http://***/forum/viewtopic.php?t=4597387]http://***/forum/viewtopic.php?t=4597387[/url]
Спасибо _simka_ за предоставленный исходник!

Запрещенной рекламы нет !!!
Качество видео: SATRip by Серый1779
Формат видео: AVI
Видео: 704x384 (1.83:1), 25 fps, XviD build 50 ~2351 kbps avg, 0.35 bit/pixel
Аудио: 48 kHz, MPEG Layer 3, 1 ch, ~128.00 kbps avg
Раздача и Рип группы:

MI

Общее
Полное имя : H:\ФИЛЬМЫ\Идеальное убийство SATRip_XviD_by_Серый1779.avi
Формат : AVI
Формат/Информация : Audio Video Interleave
Размер файла : 1,50 Гбайт
Продолжительность : 1 ч. 25 м.
Общий поток : 2489 Кбит/сек
Программа кодирования : VirtualDubMod 1.5.10.3 | www.virtualdub-fr.org || (build 2550/release)
Библиотека кодирования : VirtualDubMod build 2550/release
Видео
Идентификатор : 0
Формат : MPEG-4 Visual
Профиль формата : Advanced Simple@L5
Параметр BVOP формата : 2
Параметр QPel формата : Нет
Параметр GMC формата : Без точки перехода
Параметр матрицы формата : Default (MPEG)
Идентификатор кодека : DX50
Идентификатор кодека/Подсказка : DivX 5
Продолжительность : 1 ч. 25 м.
Битрейт : 2351 Кбит/сек
Ширина : 704 пикселя
Высота : 384 пикселя
Соотношение сторон : 1,85:1
Частота кадров : 25,000 кадров/сек
Цветовое пространство : YUV
Субдискретизация насыщенности : 4:2:0
Битовая глубина : 8 бит
Тип развёртки : Прогрессивная
Метод сжатия : С потерями
Бит/(Пиксели*Кадры) : 0.353
Размер потока : 1,42 Гбайт (95%)
Библиотека кодирования : XviD 1.2.1 (UTC 2008-12-04)
Аудио
Идентификатор : 1
Формат : MPEG Audio
Версия формата : Version 1
Профиль формата : Layer 3
Идентификатор кодека : 55
Идентификатор кодека/Подсказка : MP3
Продолжительность : 1 ч. 25 м.
Вид битрейта : Постоянный
Битрейт : 128 Кбит/сек
Каналы : 1 канал
Частота : 48,0 КГц
Метод сжатия : С потерями
Размер потока : 78,0 Мбайт (5%)
Выравнивание : Соединение по промежуткам
Продолжительность промежутка : 40 мс. (1,00 видеокадр)
Время предзагрузки промежутка : 504 мс.
Библиотека кодирования : LAME3.99r
Настройки программы : -m m -V 4 -q 2 -lowpass 20.5 -b 128

Скриншот с названием

Скриншоты

Скачать

Скачать торрент!

Как скачивать? · Что такое торрент? · Рейтинг и ограничения

Сайт не распространяет и не хранит электронные версии произведений, а лишь предоставляет доступ к создаваемому пользователями каталогу ссылок на торрент-файлы, которые содержат только списки хеш-сумм

[Профиль] [ЛС]
Показать сообщения:    
Ответить на тему

Текущее время: Сегодня 21:22

Часовой пояс: GMT + 4



Вы не можете начинать темы
Вы не можете отвечать на сообщения
Вы не можете редактировать свои сообщения
Вы не можете удалять свои сообщения
Вы не можете голосовать в опросах
Вы не можете прикреплять файлы к сообщениям
Вы не можете скачивать файлы