Starперцы / Last Vegas (Джон Тёртелтауб / Jon Turteltaub) [2013, США, комедия, драма, TeleSynch] Dub

Ответить на тему
 
Автор Сообщение

user ®

Стаж: 7 лет 7 месяцев

Сообщений: 20008

Пост Пост: #1 от 30-Дек-2013 22:35

[Цитировать]

StarперцыLast Vegas«Мы - легенда»- Страна: США
Жанр: комедия, драма
Год выпуска: 2013
Продолжительность: 01:40:45-Перевод: Профессиональный (полное дублирование)
Субтитры: нет
Режиссер: Джон Тёртелтауб / Jon Turteltaub
В ролях: Майкл Дуглас, Роберт Де Ниро, Морган Фриман, Кевин Клайн, Мэри Стинберген, Джерри Феррара, Романи Малко, Роджер Барт, Джоанна Глисон, Майкл Или, Бри Блэр, Эйприл Биллингсли-Описание: Билли, Пэдди, Арчи и Сэм дружат больше полувека. И когда убежденный холостяк Билли наконец-то делает предложение своей юной подружке, великолепная четверка отправляется в Лас-Вегас, чтобы скинуть с себя груз прожитого и зажечь как в последний раз. Великовозрастные гуляки и не подозревают, как за десятилетия эволюционировал Город Грехов...-


MPAA: PG-13 - Детям до 13 лет просмотр не желателен-

Доп. Информация

Сценарий: Дэн Фогельман / Dan Fogelman
Продюсер: Эми Баэр / Amy Baer, Джозеф Дрэйк / Joseph Drake, Лоуренс Марк / Laurence Mark, Джереми Сэмюэлс / Jeremiah Samuels, Николь Браун / Nicole Brown
Оператор: Дэвид Хеннингс / David Hennings
Композитор: Марк Мазерсбо / Mark Mothersbaugh
Бюджет: $28 000 000
Сборы в США: $62 687 000
Сборы в России: $8 040 817
Сборы в мире: $89 394 215
Мировая премьера: 31 октября 2013
-Качество: TeleSynch
Контейнер: AVI
Видео: XviD, 720x352 (2.045), 1732 kbps, 29,970 fps, 0,228 bpp
Аудио: MP3 / 2.0 / 48 kHz / 192 kbps /-

Знаете ли Вы, что...

  • Фильм поставлялся в кинотеатры под названием «Парни» (Fellas).
  • Первоначально фильм получил рейтинг «R» за «сексуальное содержание», но позже был изменен на «PG-13». По словам режиссера Джона Тёртелтауба, изначальный рейтинг «R» был присвоен фильму лишь из-за того, что в нем один раз было произнесено слово «минет».
  • Когда Сэм во время вечеринки запирается с девушкой в комнате номера отеля, то он вешает на ручку двери свой галстук. Через пару мгновений отчетливо видно, как подружка Сэма опять снимает галстук с него.
  • Когда Сэм роется в аптечке, его вторая пара очков в некоторых кадрах расположена сверху на его голове, а в некоторых исчезает.
  • В сцене в бассейне палочка в коктейле Билли то появляется, то исчезает.
  • Во взятой напрокат машине положение замка на двери водителя меняется без согласования с движениями Сэма.
  • еще 1 ошибка

Media Info

General
Complete name : G:\S74rp3rcy.2013.D.TS_1400MB.avi
Format : AVI
Format/Info : Audio Video Interleave
File size : 1.36 GiB
Duration : 1h 40mn
Overall bit rate : 1 936 Kbps
Writing application : VirtualDubMod 1.5.10.3 | www.virtualdub-fr.org || (build 2550/release)
Writing library : VirtualDubMod build 2550/release
Video
ID : 0
Format : MPEG-4 Visual
Format profile : Advanced Simple@L5
Format settings, BVOP : 2
Format settings, QPel : No
Format settings, GMC : No warppoints
Format settings, Matrix : Default (H.263)
Codec ID : XVID
Codec ID/Hint : XviD
Duration : 1h 40mn
Bit rate : 1 732 Kbps
Width : 720 pixels
Height : 352 pixels
Display aspect ratio : 2.045
Frame rate : 29.970 fps
Color space : YUV
Chroma subsampling : 4:2:0
Bit depth : 8 bits
Scan type : Progressive
Compression mode : Lossy
Bits/(Pixel*Frame) : 0.228
Stream size : 1.22 GiB (89%)
Writing library : XviD 73
Audio
ID : 1
Format : MPEG Audio
Format version : Version 1
Format profile : Layer 3
Mode : Joint stereo
Codec ID : 55
Codec ID/Hint : MP3
Duration : 1h 40mn
Bit rate mode : Constant
Bit rate : 192 Kbps
Channel(s) : 2 channels
Sampling rate : 48.0 KHz
Compression mode : Lossy
Stream size : 138 MiB (10%)
Alignment : Aligned on interleaves
Interleave, duration : 33 ms (1.00 video frame)
Interleave, preload duration : 504 ms

Скриншот с названием фильма

Скриншоты

Скачать

Скачать торрент!

Как скачивать? · Что такое торрент? · Рейтинг и ограничения

Сайт не распространяет и не хранит электронные версии произведений, а лишь предоставляет доступ к создаваемому пользователями каталогу ссылок на торрент-файлы, которые содержат только списки хеш-сумм

[Профиль] [ЛС]

suserd

Стаж: 2 года 9 месяцев

Сообщений: 1

Пост Пост: #2 от 25-Фев-2014 14:56 (спустя 1 месяц 25 дней)

[Цитировать]

берём! киношку

_________________
http://tea58.ru/ интернет магазин китайского чая
[Профиль] [ЛС]

allstars

Стаж: 2 года 9 месяцев

Сообщений: 1

Пост Пост: #3 от 25-Фев-2014 15:20 (спустя 24 минуты)

[Цитировать]

Норм комедос, на один раз)

_________________
Дэниел Крэйг
[Профиль] [ЛС]
Показать сообщения:    
Ответить на тему

Текущее время: Сегодня 06:00

Часовой пояс: GMT + 4



Вы не можете начинать темы
Вы не можете отвечать на сообщения
Вы не можете редактировать свои сообщения
Вы не можете удалять свои сообщения
Вы не можете голосовать в опросах
Вы не можете прикреплять файлы к сообщениям
Вы не можете скачивать файлы