Когда поют ангелы / Angels Sing (Тим МакКэнлис / Tim McCanlies) [2013, США, драма, комедия, семейный, HDRip] MVO (Victory Films & den904)

Ответить на тему
 
Автор Сообщение

user ®

Стаж: 7 лет 7 месяцев

Сообщений: 20008

Пост Пост: #1 от 30-Дек-2013 22:35

[Цитировать]

Когда поют ангелыAngels Sing«Christmas comes but once a year, but the memories last a lifetime»- Страна: США
Жанр: драма, комедия, семейный
Год выпуска: 2013
Продолжительность: 01:27:04-Перевод: Любительский (многоголосый) [Victory Films & den904]
Субтитры: нет
Режиссер: Тим МакКэнлис / Tim McCanlies
В ролях: Гарри Конник мл., Конни Бриттон, Чандлер Кентербери, Фионнула Флэнаган, Лайл Лаветт, Уилли Нельсон, Крис Кристофферсон, Дана Уиллер-Николсон, Элуиз Деджориа, Дилан Саммеролл, Бреннан Баркер, Sara Hickman-Описание: Когда Майкл Уолкер был ребенком, он очень любил Рождество и хотел, чтобы оно было каждый день. Так продолжалось, пока трагический случай не уничтожил его праздничное настроение. Тридцать лет спустя Майкл все так же не в состоянии ощущать радость от праздников, несмотря на поддержку своей жены. Но когда его юный сын сталкивается с трагедией, главному герою придется загладить свою вину перед прошлым.-


MPAA: PG - Рекомендуется присутствие родителей-

Кто трудился над озвучкой

Перевод : Lady-X
Озвучка: Rg Victory Films & Den904
Текст читали:
Андрей Питерский
Камила Юнусова
Анастасия Лаглер
Татьяна Зыбарева
Den904

-

Доп. Информация

Сценарий: Лу Берни / Lou Berney, Турк Пипкин / Turk Pipkin
Продюсер: Элизабет Авеллан / Elizabeth Avellan, Шеннон МакИнтош / Shannon McIntosh, Фред Миллер / Fred Miller, Турк Пипкин / Turk Pipkin, Scott Rankin
Оператор: Камал Деркауи / Kamal Derkaoui
Композитор: Карл Тиль / Carl Thiel, Scott Warren
Мировая премьера: 1 ноября 2013
-Качество: HDRip
Контейнер: AVI
Видео: XviD, 720x400 (16:9), 1852 kbps, 23,976 fps, 0,268 bpp
Аудио: AC3 / 5.1 / 48 kHz / 384 kbps / 16 bit-

Media Info

General
Complete name : G:\Kogda.angelu.pout.2013.HDRip_1400Mb.avi
Format : AVI
Format/Info : Audio Video Interleave
File size : 1.37 GiB
Duration : 1h 27mn
Overall bit rate : 2 246 Kbps
Writing application : VirtualDubMod 1.5.10.3 | www.virtualdub-fr.org || (build 2550/release)
Writing library : VirtualDubMod build 2550/release
Video
ID : 0
Format : MPEG-4 Visual
Format profile : Advanced Simple@L5
Format settings, BVOP : 2
Format settings, QPel : No
Format settings, GMC : No warppoints
Format settings, Matrix : Default (H.263)
Codec ID : XVID
Codec ID/Hint : XviD
Duration : 1h 27mn
Bit rate : 1 853 Kbps
Width : 720 pixels
Height : 400 pixels
Display aspect ratio : 16:9
Frame rate : 23.976 fps
Color space : YUV
Chroma subsampling : 4:2:0
Bit depth : 8 bits
Scan type : Progressive
Compression mode : Lossy
Bits/(Pixel*Frame) : 0.268
Stream size : 1.13 GiB (82%)
Writing library : XviD 1.2.1 (UTC 2008-12-04)
Audio
ID : 1
Format : AC-3
Format/Info : Audio Coding 3
Mode extension : CM (complete main)
Codec ID : 2000
Duration : 1h 27mn
Bit rate mode : Constant
Bit rate : 384 Kbps
Channel(s) : 6 channels
Channel positions : Front: L C R, Side: L R, LFE
Sampling rate : 48.0 KHz
Bit depth : 16 bits
Compression mode : Lossy
Stream size : 239 MiB (17%)
Alignment : Split accross interleaves
Interleave, duration : 42 ms (1.00 video frame)
Interleave, preload duration : 500 ms

Скриншот с названием фильма

Скриншоты

Скачать

Скачать торрент!

Как скачивать? · Что такое торрент? · Рейтинг и ограничения

Сайт не распространяет и не хранит электронные версии произведений, а лишь предоставляет доступ к создаваемому пользователями каталогу ссылок на торрент-файлы, которые содержат только списки хеш-сумм

[Профиль] [ЛС]
Показать сообщения:    
Ответить на тему

Текущее время: Сегодня 00:25

Часовой пояс: GMT + 4



Вы не можете начинать темы
Вы не можете отвечать на сообщения
Вы не можете редактировать свои сообщения
Вы не можете удалять свои сообщения
Вы не можете голосовать в опросах
Вы не можете прикреплять файлы к сообщениям
Вы не можете скачивать файлы