Музыка нас связала / You Instead (Дэвид Маккензи / David Mackenzie) [2011, Великобритания, Мелодрама, Комедия, Музыка, WEB-DL 1080p] MVO (Лицензия) + Sub Rus, Eng + Original Eng

Ответить на тему
 
Автор Сообщение

user ®

Стаж: 7 лет 7 месяцев

Сообщений: 20008

Пост Пост: #1 от 30-Дек-2013 19:25

[Цитировать]

Музыка нас связала / You Instead
Страна: Великобритания
Студия: BBC Films / Sigma Films
Жанр: Мелодрама, Комедия, Музыка
Год выпуска: 2011
Продолжительность: 01:16:44
Перевод: Профессиональный (многоголосый закадровый) Лицензия
Cубтитры: русские / английские
Оригинальная аудиодорожка: английский
Режиссер: Дэвид Маккензи / David Mackenzie ("Последняя любовь на Земле")
В ролях: Люк Тредэвэй (Чужие на районе, Битва Титанов), Наталия Тена (Игра престолов, Гарри Поттер), Мэтью Бэйнтон, Кари Корбетт, Софи Ву
Описание: Адам — популярный поп-певец, давно крутящий роман со строптивой супермоделью. Но его главная проблема — не в этом. Больше всего хлопот ему доставляет Морелло — лидер девичьей пост-панк-группы, встречающаяся с банкиром. А ее главная проблема — в том, что перед важным для нее выступлением на музыкальном фестивале она оказывается прикованной наручниками к ненавистному ей Адаму. На концерт приходит сто тысяч человек, но ни у кого из них нет ни ключа от наручников, ни лекарства от превратностей любви. Чтобы разорвать сковывающую их железную цепь, музыкантам придется пройти через множество испытаний. Но что делать с теми связями, которые прочнее любой стали?
Доп. информация: Международный рейтинг IMDB: 6.2 из 10 (более 2 000 голосов)
Российский рейтинг КиноПоиск: 7.018 из 10 (около 1 300 голосов)
Номинация Британской кино академии BAFTA
Меню: навигация по главам
Скачать: сэмпл
Тип релиза: WEB-DL 1080p
Контейнер: MKV
Видео: x264, 1916x1076, 4 988 Kb/s, 25 fps, 0.097 Bits/Pixel
Аудио 1: AC3, 384 kb/s (6 ch), 48.0 KHz, 16 bits [Russian]
Аудио 2: AC3, 192 kb/s (2 ch), 48.0 KHz, 16 bits [English]
Формат субтитров: softsub (SRT)

MediaInfo

General
Complete name : D:\Загрузки\Muzyka.nas.svjazala.2011.P.Eng.WEB-DL.1080p.mkv
Format : Matroska
Format version : Version 4 / Version 2
File size : 3.04 GiB
Duration : 1h 16mn
Overall bit rate : 5 677 Kbps
Encoded date : UTC 2013-10-29 06:04:17
Writing application : mkvmerge v6.5.0 ('Isn't she lovely') built on Oct 20 2013 12:50:05
Writing library : libebml v1.3.0 + libmatroska v1.4.1
Video
ID : 1
Format : AVC
Format/Info : Advanced Video Codec
Format profile : High@L4.0
Format settings, CABAC : Yes
Format settings, ReFrames : 4 frames
Codec ID : V_MPEG4/ISO/AVC
Duration : 1h 16mn
Bit rate : 4 988 Kbps
Width : 1 916 pixels
Height : 1 076 pixels
Display aspect ratio : 16:9
Frame rate mode : Constant
Frame rate : 25.000 fps
Color space : YUV
Chroma subsampling : 4:2:0
Bit depth : 8 bits
Scan type : Progressive
Bits/(Pixel*Frame) : 0.097
Stream size : 2.67 GiB (88%)
Language : English
Default : Yes
Forced : No
Color primaries : BT.709
Transfer characteristics : BT.709
Matrix coefficients : BT.709
Audio #1
ID : 2
Format : AC-3
Format/Info : Audio Coding 3
Mode extension : CM (complete main)
Format settings, Endianness : Big
Codec ID : A_AC3
Duration : 1h 16mn
Bit rate mode : Constant
Bit rate : 384 Kbps
Channel(s) : 6 channels
Channel positions : Front: L C R, Side: L R, LFE
Sampling rate : 48.0 KHz
Bit depth : 16 bits
Compression mode : Lossy
Stream size : 211 MiB (7%)
Language : Russian
Default : Yes
Forced : Yes
Audio #2
ID : 3
Format : AC-3
Format/Info : Audio Coding 3
Mode extension : CM (complete main)
Format settings, Endianness : Big
Codec ID : A_AC3
Duration : 1h 16mn
Bit rate mode : Constant
Bit rate : 192 Kbps
Channel(s) : 2 channels
Channel positions : Front: L R
Sampling rate : 48.0 KHz
Bit depth : 16 bits
Compression mode : Lossy
Stream size : 105 MiB (3%)
Language : English
Default : No
Forced : No
Text #1
ID : 4
Format : UTF-8
Codec ID : S_TEXT/UTF8
Codec ID/Info : UTF-8 Plain Text
Language : Russian
Default : No
Forced : No
Text #2
ID : 5
Format : UTF-8
Codec ID : S_TEXT/UTF8
Codec ID/Info : UTF-8 Plain Text
Language : English
Default : No
Forced : No
Menu
00:00:00.000 : en:Глава 1
00:05:57.000 : en:Глава 2
00:10:57.000 : en:Глава 3
00:15:59.000 : en:Глава 4
00:21:11.000 : en:Глава 5
00:26:11.000 : en:Глава 6
00:31:18.000 : en:Глава 7
00:36:22.000 : en:Глава 8
00:41:23.000 : en:Глава 9
00:46:47.000 : en:Глава 10
00:52:06.000 : en:Глава 11
00:57:19.000 : en:Глава 12
01:02:19.000 : en:Глава 13
01:07:19.000 : en:Глава 14
01:12:19.000 : en:Глава 15

Скриншот c названием

Скриншоты

Скачать

Скачать торрент!

Как скачивать? · Что такое торрент? · Рейтинг и ограничения

Сайт не распространяет и не хранит электронные версии произведений, а лишь предоставляет доступ к создаваемому пользователями каталогу ссылок на торрент-файлы, которые содержат только списки хеш-сумм

[Профиль] [ЛС]
Показать сообщения:    
Ответить на тему

Текущее время: Сегодня 04:51

Часовой пояс: GMT + 4



Вы не можете начинать темы
Вы не можете отвечать на сообщения
Вы не можете редактировать свои сообщения
Вы не можете удалять свои сообщения
Вы не можете голосовать в опросах
Вы не можете прикреплять файлы к сообщениям
Вы не можете скачивать файлы