Домоправитель (Роман Барабаш) [2013, Украина, комедия, HDTV 1080p]

Ответить на тему
 
Автор Сообщение

user ®

Стаж: 7 лет 7 месяцев

Сообщений: 20008

Пост Пост: #1 от 30-Дек-2013 19:25

[Цитировать]

Домоправитель Страна: Украина
Студия: Star Media
Жанр: комедия
Год выпуска: 2013
Продолжительность: 01:24:20
Перевод: Не требуется
Cубтитры: нет
Режиссер: Роман Барабаш
В ролях: Илья Глинников, Алика Смехова, Полина Воробьева, Константин Милованов, Павел Бессонов, Сергей Бондарчук, Валерия Гуляева, Анна Полищук, Константин Чернокрылюк
Описание: На курсе Леши Агафонова появляется новенькая — Ангелина Аистова. Отчаявшись привлечь внимание красотки, он имитирует столкновение с её машиной. Оказавшись в особняке Аистовых, Леша понимает, что влюбился в дочь олигарха, который, впрочем, переживает не лучшие времена из-за затяжной «войны» с давним конкурентом. Чтобы замять дело о наезде, Леша был принят к Аистовым на должность садовника.
По долгу службы Леша захаживает в цветочный магазин, где знакомится с продавщицей Катей. Между ними завязывается дружба.
У Ангелины проблемы с учебой, и отец грозит лишить ее финансирования. Она решает использовать влюбленного садовника, который лучше всех пишет курсовые. Но отношения, замешанные на лжи, распадаются.
Когда все собираются на празднике в доме Аистова, начинаются сюрпризы: выясняется, что Катя — его старшая дочь. Просто она решила пробиться в жизни самостоятельно. Пришедший на празднование давний конкурент Аистова — Тихонов неожиданно объявляет, что Леша — его сын, который нашел способ разрешения конфликта между двумя бизнес-империями.
Ангелина потрясена — она не разглядела в Леше богатого наследника. А Леша и Катя поняли, что все время своего знакомства они шли навстречу друг другу.

Сэмпл: http://multi-up.com/935859
Тип релиза: HDTV 1080p
Контейнер: TS
Видео: AVC/H.264, PAL, 1920x1080 (16:9), 8026 Кбит/сек, 25.000 fps
Аудио: русский, Mp2, 48000 Hz, 192 Кбит/сек, 2 ch

MediaInfo

Видео
Идентификатор : 256 (0x100)
Идентификатор меню : 1 (0x1)
Формат : AVC
Формат/Информация : Advanced Video Codec
Профиль формата : High@L4.1
Параметр CABAC формата : Да
Параметр ReFrames формата : 3 кадра
Идентификатор кодека : 27
Продолжительность : 1 ч. 24 м.
Вид битрейта : Постоянный
Битрейт : 8026 Кбит/сек
Ширина : 1920 пикселей
Высота : 1080 пикселей
Соотношение сторон : 16:9
Частота кадров : 25,000 кадров/сек
Стандарт вещания : PAL
Цветовое пространство : YUV
Субдискретизация насыщенности : 4:2:0
Битовая глубина : 8 бит
Тип развёртки : Прогрессивная
Бит/(Пиксели*Кадры) : 0.155
Размер потока : 4,65 Гбайт (93%)
Основные цвета : BT.709
Характеристики трансфера : BT.709
Коэффициенты матрицы : BT.709
Аудио
Идентификатор : 257 (0x101)
Идентификатор меню : 1 (0x1)
Формат : MPEG Audio
Версия формата : Version 1
Профиль формата : Layer 2
Идентификатор кодека : 3
Продолжительность : 1 ч. 24 м.
Вид битрейта : Постоянный
Битрейт : 192 Кбит/сек
Каналы : 2 канала
Частота : 48,0 КГц
Метод сжатия : С потерями
Размер потока : 116 Мбайт (2%)
Язык : Russian

Скриншот c названием фильма

Скриншоты

Скачать

Скачать торрент!

Как скачивать? · Что такое торрент? · Рейтинг и ограничения

Сайт не распространяет и не хранит электронные версии произведений, а лишь предоставляет доступ к создаваемому пользователями каталогу ссылок на торрент-файлы, которые содержат только списки хеш-сумм

[Профиль] [ЛС]
Показать сообщения:    
Ответить на тему

Текущее время: Сегодня 14:13

Часовой пояс: GMT + 4



Вы не можете начинать темы
Вы не можете отвечать на сообщения
Вы не можете редактировать свои сообщения
Вы не можете удалять свои сообщения
Вы не можете голосовать в опросах
Вы не можете прикреплять файлы к сообщениям
Вы не можете скачивать файлы