Страна хороших деточек (Ольга Каптур) [2013, детский, приключения, семейный, WEB-DLRip, AVC]

Ответить на тему
 
Автор Сообщение

user ®

Стаж: 7 лет 7 месяцев

Сообщений: 20008

Пост Пост: #1 от 30-Дек-2013 16:15

[Цитировать]

Страна хороших деточек
Жанр: детский, приключения, семейный
Год выпуска: 2013
Продолжительность: 01:18:49
Режиссёр: Ольга Каптур
В ролях: Кира Флейшер, Вячеслав Манучаров, Наталья Селезнёва, Владимир Грамматиков, Андрей Кайков, Ирина Пегова, Дмитрий Назаров, Евгений Воскресенский, Ивонн Каттерфельд, Дарья Андреева
Описание: Девочка Саша была весёлой, но не очень хорошей девочкой. Она жила с бабушкой, дедушкой, мамой, папой, псом Балбесом и котом Багетом. Однажды в новогоднюю ночь по загаданному в сердцах желанию родителей Саша была отправлена волшебником в Страну Хороших Деточек на перевоспитание. Только действительно ли так хороша эта страна?
Сэмпл: http://sendfile.su/915950
Качество видео: WEB-DLRip
Формат видео: MKV
Видео: AVC, 1024 x 576, ~2252 Кбит/с
Аудио: AC3, 6 ch, 320 Кбит/с

MediaInfo

StraHa.h0r0sh1h.d3t0chek.2013.O.WEBRip-AVC..mkv
Format : Matroska
Format version : Version 1
File size : 1.44 GiB
Duration : 1h 18mn
Overall bit rate : 2 624 Kbps
Encoded date : UTC 2013-12-30 11:53:07
Writing library : WonderShare Matroska Muxer
Video #1
ID : 1
Format : AVC
Format/Info : Advanced Video Codec
Format profile : Baseline@L3.0
Format settings, CABAC : No
Format settings, ReFrames : 1 frame
Codec ID : V_MPEG4/ISO/AVC
Duration : 1h 18mn
Bit rate : 2 252 Kbps
Width : 1 024 pixels
Height : 576 pixels
Display aspect ratio : 16:9
Frame rate : 23.976 fps
Original frame rate : 23.000 fps
Color space : YUV
Chroma subsampling : 4:2:0
Bit depth : 8 bits
Scan type : Progressive
Bits/(Pixel*Frame) : 0.159
Stream size : 1.24 GiB (86%)
Writing library : h
Audio #2
ID : 2
Format : AC-3
Format/Info : Audio Coding 3
Mode extension : CM (complete main)
Codec ID : A_AC3
Duration : 1h 18mn
Bit rate mode : Constant
Bit rate : 320 Kbps
Channel(s) : 6 channels
Channel positions : Front: L C R, Side: L R, LFE
Sampling rate : 48.0 KHz
Bit depth : 16 bits
Compression mode : Lossy
Stream size : 180 MiB (12%)

Скриншот c названием фильма

Скриншоты

Скачать

Скачать торрент!

Как скачивать? · Что такое торрент? · Рейтинг и ограничения

Сайт не распространяет и не хранит электронные версии произведений, а лишь предоставляет доступ к создаваемому пользователями каталогу ссылок на торрент-файлы, которые содержат только списки хеш-сумм

[Профиль] [ЛС]
Показать сообщения:    
Ответить на тему

Текущее время: Сегодня 16:22

Часовой пояс: GMT + 4



Вы не можете начинать темы
Вы не можете отвечать на сообщения
Вы не можете редактировать свои сообщения
Вы не можете удалять свои сообщения
Вы не можете голосовать в опросах
Вы не можете прикреплять файлы к сообщениям
Вы не можете скачивать файлы