Жены якудза / Yakuza Wives (Хидэо Гося / Hideo Gosha) [1986, Япония, Драма, DVDRip-AVC] VO

Ответить на тему
 
Автор Сообщение

user ®

Стаж: 11 лет

Сообщений: 15151

Пост Пост: #1 от 30-Дек-2013 10:20

[Цитировать]

Жены якудза / Yakuza Wives
Страна: Япония
Жанр: Драма
Год выпуска: 1986
Продолжительность: 1час 59мин 44 с
Перевод: Одноголосый закадровый. Студия "Sakura". Озвучил Delonnn.
Cубтитры: нет
Оригинальная аудиодорожка: японский
Режиссер: Хидэо Гося / Hideo Gosha
В ролях: Шима Ивасита,Рино Катасе,Марасаке Фудзима,Моеко Изава,Сейзо Фукумото
Описание: В то время как ее муж находится в тюрьме, Тамаки, жена главаря банды якудза, управляет бригадой ее супруга железной рукой. Тем временем, Макато, ее младшая сестра, женится на представителе конкурирующей группы, будучи изнасилованным им. Эти две сестры, объединенные узами крови, вышли замуж за якудза из конкурирующих группировок. Им предстоит решить, в конечном счете, на чьей они будут стороне…
Доп. информация: Рип взят в сети.Озвучено по субтитрам neko 64.Спасибо ему за субтитры выложенные в свободное пользование.
Качество видео: DVDRip-AVC
Формат видео: MKV
Видео: 704x464 , 24 fps, V_MPEG4/ISO/AVC.
Аудио: 192 Кбит/с,48 КГц, 2 канала, AC-3 (русский перевод)
Аудио 2: 192 Кбит/с, 48 КГц, 2 канала, АС-3 (оригинальная дорожка)

MediaInfo

General
Unique ID : 198280538907080872841599682069528401269 (0x952B71568F2797CA908D97803CED5575)
Complete name : I:\Жёны якудзы\Wives of the Yakuza 1986 (1).mkv
Format : Matroska
Format version : Version 2
File size : 788 MiB
Duration : 1h 59mn
Overall bit rate mode : Variable
Overall bit rate : 920 Kbps
Encoded date : UTC 2013-12-28 14:49:07
Writing application : mkvmerge v4.0.0 ('The Stars were mine') сборка от Jun 6 2010 16:18:42
Writing library : libebml v1.0.0 + libmatroska v1.0.0
Video
ID : 1
Format : AVC
Format/Info : Advanced Video Codec
Format profile : High@L5.1
Format settings, CABAC : Yes
Format settings, ReFrames : 3 frames
Codec ID : V_MPEG4/ISO/AVC
Duration : 1h 59mn
Bit rate : 601 Kbps
Width : 704 pixels
Height : 464 pixels
Display aspect ratio : 1.85:1
Original display aspect ratio : 1.85:1
Frame rate mode : Constant
Frame rate : 23.976 fps
Color space : YUV
Chroma subsampling : 4:2:0
Bit depth : 8 bits
Scan type : Progressive
Bits/(Pixel*Frame) : 0.077
Stream size : 515 MiB (65%)
Writing library : x264 core 60 r900 a9af942
Encoding settings : cabac=1 / ref=3 / deblock=1:-2:-1 / analyse=0x3:0x113 / me=umh / subme=6 / brdo=0 / mixed_ref=0 / me_range=12 / chroma_me=1 / trellis=1 / 8x8dct=1 / cqm=0 / deadzone=21,11 / chroma_qp_offset=0 / threads=3 / nr=0 / decimate=1 / mbaff=0 / bframes=16 / b_pyramid=1 / b_adapt=1 / b_bias=0 / direct=3 / wpredb=1 / bime=0 / keyint=250 / keyint_min=25 / scenecut=40(pre) / rc=crf / crf=22.0 / rceq='blurCplx^(1-qComp)' / qcomp=1.00 / qpmin=10 / qpmax=51 / qpstep=4 / ip_ratio=1.40 / pb_ratio=1.30 / aq=2:1.00
Default : Yes
Forced : No
Audio #1
ID : 2
Format : AC-3
Format/Info : Audio Coding 3
Mode extension : CM (complete main)
Format settings, Endianness : Big
Codec ID : A_AC3
Duration : 1h 59mn
Bit rate mode : Constant
Bit rate : 192 Kbps
Channel(s) : 2 channels
Channel positions : Front: L R
Sampling rate : 48.0 KHz
Bit depth : 16 bits
Compression mode : Lossy
Stream size : 164 MiB (21%)
Title : Delonnn
Language : Russian
Default : Yes
Forced : No
Audio #2
ID : 3
Format : MPEG Audio
Format version : Version 1
Format profile : Layer 3
Mode : Joint stereo
Codec ID : A_MPEG/L3
Codec ID/Hint : MP3
Duration : 1h 59mn
Bit rate mode : Variable
Bit rate : 108 Kbps
Minimum bit rate : 32.0 Kbps
Channel(s) : 2 channels
Sampling rate : 48.0 KHz
Compression mode : Lossy
Stream size : 92.4 MiB (12%)
Title : Japanese

Скриншот c названием фильма

Скриншоты


Скачать

Скачать торрент! Жены якудза / Yakuza Wives (Хидэо Гося / Hideo Gosha) [1986, Япония, Драма, DVDRip-AVC] VO

Как скачивать? · Что такое торрент? · Рейтинг и ограничения

Сайт не распространяет и не хранит электронные версии произведений, а лишь предоставляет доступ к создаваемому пользователями каталогу ссылок на торрент-файлы, которые содержат только списки хеш-сумм

[Профиль] [ЛС]
Показать сообщения:    
Ответить на тему

Текущее время: Сегодня 05:08

Часовой пояс: GMT + 4



Вы не можете начинать темы
Вы не можете отвечать на сообщения
Вы не можете редактировать свои сообщения
Вы не можете удалять свои сообщения
Вы не можете голосовать в опросах
Вы не можете прикреплять файлы к сообщениям
Вы не можете скачивать файлы