Новый старый дом / Старый новый дом (Серия 1-2 из 2) (Анжелика Грицук) [2013, Комедия, мелодрама, SATRip]

Ответить на тему
 
Автор Сообщение

user ®

Стаж: 7 лет 7 месяцев

Сообщений: 20008

Пост Пост: #1 от 30-Дек-2013 04:00

[Цитировать]

Новый старый дом / Старый новый дом
Жанр: Комедия, мелодрама
Год выпуска: 2013
Продолжительность: 00:44:21 + 00:44:05
Режиссёр: Анжелика Грицук
В ролях: Рина Гришина, Михаил Пореченков, Андрей Мерзликин, Максим Виторган, Дарья Екамасова, Дарья Калмыкова, Юлия Ауг, Олеся Фаттахова, Сергей Беляев, Александр Баршак, Александр Усов
Описание: В доме номер 15 по улице Пестро-Серой живут самые обычные люди. Вот только этой зимой им как-то особенно не везет. У Лены случилась беда – её молодой человек оказался аферистом. Он взял в банке кредит под залог её квартиры, а сам исчез. У Светланы с Герой – кризис семейной жизни. Ей кажется, что муж не способен на настоящие поступки, но он ради нее готов на все. Даже ограбить банк. Юра и Оля ругаются в день свадьбы, а супруги Бариновы – всю жизнь… Все так заняты своими делами, что едва не пропускают момент, когда их ближнему отчаянно требуется помощь. И лишь вмешательство обстоятельств все расставляет на свои места.
Сэмпл: http://yadi.sk/d/DL6iFjiiFBTJM
Качество видео: SATRip
Формат видео: AVI
Видео: XviD, 720x400, 25.00fps, ~2144 Кбит/сек, 0.298 bit/pixel
Аудио: MP3, 48000 Hz, stereo, 192 Кбит/сек

MediaInfo

Общее
Полное имя : R:\Сериалы\Фильмы\Новый старый дом (Старый новый дом) (2013)\Новый старый дом (Старый новый дом).(01.seriya).2013.XviD.SATRip.by.simka.avi
Формат : AVI
Формат/Информация : Audio Video Interleave
Размер файла : 744 Мбайт
Продолжительность : 44 м.
Общий поток : 2346 Кбит/сек
Программа кодирования : VirtualDubMod 1.5.10.3 | www.virtualdub-fr.org || (build 2550/release)
Библиотека кодирования : VirtualDubMod build 2550/release
Видео
Идентификатор : 0
Формат : MPEG-4 Visual
Профиль формата : Advanced Simple@L5
Параметр BVOP формата : 1
Параметр QPel формата : Нет
Параметр GMC формата : Без точки перехода
Параметр матрицы формата : Default (H.263)
Идентификатор кодека : XVID
Идентификатор кодека/Подсказка : XviD
Продолжительность : 44 м.
Битрейт : 2144 Кбит/сек
Ширина : 720 пикселей
Высота : 400 пикселей
Соотношение сторон : 16:9
Частота кадров : 25,000 кадров/сек
Цветовое пространство : YUV
Субдискретизация насыщенности : 4:2:0
Битовая глубина : 8 бит
Тип развёртки : Прогрессивная
Метод сжатия : С потерями
Бит/(Пиксели*Кадры) : 0.298
Размер потока : 680 Мбайт (91%)
Библиотека кодирования : XviD 1.2.1 (UTC 2008-12-04)
Аудио
Идентификатор : 1
Формат : MPEG Audio
Версия формата : Version 1
Профиль формата : Layer 3
Режим : Joint stereo
Расширение режима : MS Stereo
Идентификатор кодека : 55
Идентификатор кодека/Подсказка : MP3
Продолжительность : 44 м.
Вид битрейта : Постоянный
Битрейт : 192 Кбит/сек
Каналы : 2 канала
Частота : 48,0 КГц
Метод сжатия : С потерями
Размер потока : 60,9 Мбайт (8%)
Выравнивание : Соединение по промежуткам
Продолжительность промежутка : 40 мс. (1,00 видеокадр)
Время предзагрузки промежутка : 504 мс.
Библиотека кодирования : LAME3.99r
Настройки программы : -m j -V 4 -q 2 -lowpass 18.6 -b 192

Скриншот c названием фильма

Скриншоты


-
Релиз группы::
Скачать

Скачать торрент!

Как скачивать? · Что такое торрент? · Рейтинг и ограничения

Сайт не распространяет и не хранит электронные версии произведений, а лишь предоставляет доступ к создаваемому пользователями каталогу ссылок на торрент-файлы, которые содержат только списки хеш-сумм

[Профиль] [ЛС]
Показать сообщения:    
Ответить на тему

Текущее время: Сегодня 18:16

Часовой пояс: GMT + 4



Вы не можете начинать темы
Вы не можете отвечать на сообщения
Вы не можете редактировать свои сообщения
Вы не можете удалять свои сообщения
Вы не можете голосовать в опросах
Вы не можете прикреплять файлы к сообщениям
Вы не можете скачивать файлы