Под прицелом / Liberty Stands Still (Кари Скогланд / Kari Skogland) [2002, Германия, Канада, триллер, драма, WEB-DL 720p] DVO + Sub Eng + Original Eng

Ответить на тему
 
Автор Сообщение

user ®

Стаж: 7 лет 7 месяцев

Сообщений: 20008

Пост Пост: #1 от 30-Дек-2013 00:50

[Цитировать]

Под прицелом / Liberty Stands Still Страна: Германия, Канада
Студия: Cinerenta Medienbeteiligungs KG, Lions Gate Films Inc.
Жанр: триллер, драма
Год выпуска: 2002
Продолжительность: 01:36:27
Перевод: Профессиональный (двухголосый закадровый) DVD R5
Cубтитры: английские, SDH
Оригинальная аудиодорожка: английский
Режиссер: Кари Скогланд / Kari Skogland
В ролях: Уэсли Снайпс, Линда Фиорентино, Таня Аллен, Харт Бокнер, Фульвио Чечере, Грегори Калпакис, Терри Чен, Гарвин Кросс, Роджер Р. Кросс, Мартин Камминс
Описание: Либерти Уоллас, жена международного дилера по торговле оружием, взята в заложницы обезумевшим отцом девочки, убитой из пистолета, проданного фирмой ее мужа.
Если Либерти не выполнит все требования террориста, он взорвет бомбу в театре, где, помимо других людей, находится и ее муж. Героине приходится вступить в долгую и опасную игру с человеком, готовым на все.-Доп. информация: -Тип релиза: WEB-DL 720p
Контейнер: MKV
Видео: MPEG-4 AVC Video, 1280x716 / 1,78:1 (16:9) / ~ 4172 kbps / 23,976 fps / High@L3.1
Аудио 1: Russian: AC3, 6 ch, 448 kbps, 48 kHz
Аудио 2: English: AC3, 6 ch, 448 kbps, 48 kHz | [url=http://***/forum/viewtopic.php?t=1677390]DVD9 R5 - [DesertRose][/url]
Аудио 3: English: AAC (LC), 2.0 ch, ~160 kbps, 48 kHz [iTunes]
Формат субтитров: softsub (SRT)
Главы:

MediaInfo

Общее
Уникальный идентификатор : 205998512085908538297561262438230051856 (0x9AF9DECB7E0A19759C41B5D5E3BCCC10)
Полное имя : L:\Под прицелом 2002.WEB-DL.720p.ПД.Eng2.mkv
Формат : Matroska
Версия формата : Version 4 / Version 2
Размер файла : 3,52 Гбайт
Продолжительность : 1 ч. 36 м.
Общий поток : 5228 Кбит/сек
Название фильма : Liberty Stands Still (2002)
Дата кодирования : UTC 2013-12-28 17:03:51
Программа кодирования : mkvmerge v6.6.0 ('The Edge Of The In Between') built on Dec 1 2013 17:55:00
Библиотека кодирования : libebml v1.3.0 + libmatroska v1.4.1
Видео
Идентификатор : 1
Формат : AVC
Формат/Информация : Advanced Video Codec
Профиль формата : High@L3.1
Параметр CABAC формата : Нет
Параметр ReFrames формата : 2 кадра
Идентификатор кодека : V_MPEG4/ISO/AVC
Продолжительность : 1 ч. 36 м.
Ширина : 1280 пикселей
Высота : 716 пикселей
Соотношение сторон : 16:9
Режим частоты кадров : Постоянный
Частота кадров : 23,976 кадра/сек
Цветовое пространство : YUV
Субдискретизация насыщенности : 4:2:0
Битовая глубина : 8 бит
Тип развёртки : Прогрессивная
Язык : English
Default : Да
Forced : Нет
Основные цвета : BT.709
Характеристики трансфера : BT.709
Коэффициенты матрицы : BT.709
Аудио #1
Идентификатор : 2
Формат : AC-3
Формат/Информация : Audio Coding 3
Расширение режима : CM (complete main)
Параметр Endianness формата : Big
Идентификатор кодека : A_AC3
Продолжительность : 1 ч. 36 м.
Вид битрейта : Постоянный
Битрейт : 448 Кбит/сек
Каналы : 6 каналов
Расположение каналов : Front: L C R, Side: L R, LFE
Частота : 48,0 КГц
Битовая глубина : 16 бит
Метод сжатия : С потерями
Размер потока : 309 Мбайт (9%)
Заголовок : AC3 6ch 448kbps - двухголосый (DVD R5)
Язык : Russian
Default : Да
Forced : Нет
Аудио #2
Идентификатор : 3
Формат : AC-3
Формат/Информация : Audio Coding 3
Расширение режима : CM (complete main)
Параметр Endianness формата : Big
Идентификатор кодека : A_AC3
Продолжительность : 1 ч. 36 м.
Вид битрейта : Постоянный
Битрейт : 448 Кбит/сек
Каналы : 6 каналов
Расположение каналов : Front: L C R, Side: L R, LFE
Частота : 48,0 КГц
Битовая глубина : 16 бит
Метод сжатия : С потерями
Размер потока : 309 Мбайт (9%)
Заголовок : AC3 6ch 448kbps - (DVD R5)
Язык : English
Default : Нет
Forced : Нет
Аудио #3
Идентификатор : 4
Формат : AAC
Формат/Информация : Advanced Audio Codec
Профиль формата : LC
Идентификатор кодека : A_AAC
Продолжительность : 1 ч. 36 м.
Каналы : 2 канала
Расположение каналов : Front: L R
Частота : 48,0 КГц
Метод сжатия : С потерями
Заголовок : AAC (LC) 2.0ch ~160kbps - original (iTunes)
Язык : English
Default : Нет
Forced : Нет
Текст #1
Идентификатор : 5
Формат : UTF-8
Идентификатор кодека : S_TEXT/UTF8
Идентификатор кодека/Информация : UTF-8 Plain Text
Язык : English
Default : Нет
Forced : Нет
Текст #2
Идентификатор : 6
Формат : UTF-8
Идентификатор кодека : S_TEXT/UTF8
Идентификатор кодека/Информация : UTF-8 Plain Text
Заголовок : SDH
Язык : English
Default : Нет
Forced : Нет
Меню
00:00:00.000 : en:Chapter 1
00:03:13.000 : en:Chapter 2
00:10:49.000 : en:Chapter 3
00:21:09.000 : en:Chapter 4
00:28:56.000 : en:Chapter 5
00:36:08.000 : en:Chapter 6
00:43:34.000 : en:Chapter 7
00:54:04.000 : en:Chapter 8
01:03:07.000 : en:Chapter 9
01:11:42.000 : en:Chapter 10
01:21:31.000 : en:Chapter 11
01:32:39.000 : en:Chapter 12

-

Скриншот с названием фильма

Скачать

Скачать торрент!

Как скачивать? · Что такое торрент? · Рейтинг и ограничения

Сайт не распространяет и не хранит электронные версии произведений, а лишь предоставляет доступ к создаваемому пользователями каталогу ссылок на торрент-файлы, которые содержат только списки хеш-сумм

[Профиль] [ЛС]
Показать сообщения:    
Ответить на тему

Текущее время: Сегодня 16:39

Часовой пояс: GMT + 4



Вы не можете начинать темы
Вы не можете отвечать на сообщения
Вы не можете редактировать свои сообщения
Вы не можете удалять свои сообщения
Вы не можете голосовать в опросах
Вы не можете прикреплять файлы к сообщениям
Вы не можете скачивать файлы