Копы в глубоком запасе / The Other Guys (Адам МакКэй / Adam McKay) [2010, США, боевик, комедия, криминал, BDRip 720p] [Extended Version] Dub (BD CEE) + VO (КвК) + VO (seqw0) + Sub Rus, Eng + Original Eng

Ответить на тему
 
Автор Сообщение

user ®

Стаж: 7 лет 7 месяцев

Сообщений: 20008

Пост Пост: #1 от 29-Дек-2013 15:15

[Цитировать]

Копы в глубоком запасе / The Other Guys / Extended Version
Страна: США
Студия: Columbia Pictures
Жанр: боевик, комедия, криминал
Год выпуска: 2010
Продолжительность: 01:56:14-Перевод: Профессиональный (дублированный) со вставками многоголосого BD CEE
Перевод 2: Студийный (одноголосый закадровый) КвК
Перевод 3: Авторский (одноголосый закадровый) seqw0
Cубтитры: Rus (Надписи и т.д), Rus (Voronine), Rus (seqw0), Eng.
Оригинальная аудиодорожка: английский-Режиссер: Адам МакКэй / Adam McKay
В ролях: Уилл Феррелл, Марк Уолберг, Ева Мендес, Майкл Китон, Стив Кугэн, Сэмюэл Л. Джексон, Дуэйн Джонсон, Роб Риггл, Дэймон Уайанс мл., Энди Баккли
Описание: Нью-Йоркские детективы Аллен Гэмбл и Терри Хойтз ведут полицейскую бухгалтерию. Гэмблу такая работа в радость, Хойтзу - наказание. Когда напарникам представится шанс выйти из тени - прийти на помощь своим кумирам, детективам Дэнсону и Манцетти - станет ясно, что в бухгалтерию Гэмбла и Хойтза сослали не зря...
Рип от DON
Сэмпл: sendfile→, rusfolder→
Тип релиза: BDRip 720p
Контейнер: MKV
Видео: 1280 x 536 (2.388), x264, L4.1, 23.976 fps, 7500 kbps
Аудио: 48 kHz, DD 5.1 - 640 kbps |Дубляж + MVO, BD CEE|
Аудио 2: 48 kHz, DTS 5.1 - 1536 kbps |AVO, КвК|
Аудио 3: 48 kHz, DTS 5.1 - 1536 kbps |AVO, seqw0|
Аудио 4: 48 kHz, DD 5.1 - 640 kbps |Оригинал|

Release Info

SOURCE 1......: The Other Guys 2010 1080p CAN Blu-ray AVC DTS-HD MA 5.1-EbP
SOURCE 2......: The Other Guys 2010 2in1 1080p CEE Blu-ray AVC DTS-HD MA 5.1-CHDBits
NOTES.........: The remastered source was used for most parts of the movie.
The extended scenes were taken from source 2.

MediaInfo

Полное имя : The.Other.Guys.2010.Extended.Hybrid.720p.BluRay.DD5.1.x264-DON.3xRus.Eng.mkv
Формат : Matroska
Версия формата : Version 4 / Version 2
Размер файла : 9,59 Гбайт
Продолжительность : 1 ч. 56 м.
Общий поток : 11,8 Мбит/сек
Название фильма : The Other Guys [Extended] (2010) | Hybrid Rip by DON
Дата кодирования : UTC 2013-12-26 13:05:03
Программа кодирования : mkvmerge v6.5.0 ('Isn't she lovely') built on Oct 20 2013 12:50:05
Библиотека кодирования : libebml v1.3.0 + libmatroska v1.4.1
Видео
Идентификатор : 1
Формат : AVC
Формат/Информация : Advanced Video Codec
Профиль формата : High@L4.1
Параметр CABAC формата : Да
Параметр ReFrames формата : 12 кадров
Идентификатор кодека : V_MPEG4/ISO/AVC
Продолжительность : 1 ч. 56 м.
Битрейт : 7500 Кбит/сек
Ширина : 1280 пикселей
Высота : 536 пикселей
Соотношение сторон : 2,40:1
Режим частоты кадров : Постоянный
Частота кадров : 23,976 кадра/сек
Цветовое пространство : YUV
Субдискретизация насыщенности : 4:2:0
Битовая глубина : 8 бит
Тип развёртки : Прогрессивная
Бит/(Пиксели*Кадры) : 0.456
Размер потока : 5,90 Гбайт (62%)
Заголовок : The Other Guys [Extended] (2010) by Djex
Библиотека кодирования : x264 core 140 r2377 1ca7bb9
Настройки программы : cabac=1 / ref=12 / deblock=1:-3:-3 / analyse=0x3:0x133 / me=umh / subme=10 / psy=1 / psy_rd=1.00:0.05 / mixed_ref=1 / me_range=32 / chroma_me=1 / trellis=2 / 8x8dct=1 / cqm=0 / deadzone=6,6 / fast_pskip=0 / chroma_qp_offset=-3 / threads=9 / lookahead_threads=1 / sliced_threads=0 / nr=0 / decimate=0 / interlaced=0 / bluray_compat=0 / constrained_intra=0 / bframes=8 / b_pyramid=2 / b_adapt=2 / b_bias=0 / direct=3 / weightb=1 / open_gop=0 / weightp=2 / keyint=250 / keyint_min=23 / scenecut=40 / intra_refresh=0 / rc=2pass / mbtree=0 / bitrate=7500 / ratetol=1.0 / qcomp=0.70 / qpmin=0 / qpmax=40 / qpstep=4 / cplxblur=20.0 / qblur=0.5 / ip_ratio=1.30 / pb_ratio=1.20 / aq=1:0.80
Язык : English
Default : Да
Forced : Нет
Коэффициенты матрицы : BT.709
Аудио #1
Идентификатор : 2
Формат : AC-3
Формат/Информация : Audio Coding 3
Расширение режима : CM (complete main)
Параметр Endianness формата : Big
Идентификатор кодека : A_AC3
Продолжительность : 1 ч. 56 м.
Вид битрейта : Постоянный
Битрейт : 640 Кбит/сек
Каналы : 6 каналов
Расположение каналов : Front: L C R, Side: L R, LFE
Частота : 48,0 КГц
Битовая глубина : 16 бит
Метод сжатия : С потерями
Размер потока : 532 Мбайт (5%)
Заголовок : DD 5.1 - 640 kbps |Дубляж + MVO, BD CEE|
Язык : Russian
Default : Да
Forced : Нет
Аудио #2
Идентификатор : 3
Формат : DTS
Формат/Информация : Digital Theater Systems
Режим : 16
Параметр Endianness формата : Big
Идентификатор кодека : A_DTS
Продолжительность : 1 ч. 56 м.
Вид битрейта : Постоянный
Битрейт : 1510 Кбит/сек
Каналы : 6 каналов
Расположение каналов : Front: L C R, Side: L R, LFE
Частота : 48,0 КГц
Битовая глубина : 16 бит
Метод сжатия : С потерями
Размер потока : 1,23 Гбайт (13%)
Заголовок : DTS 5.1 - 1536 kbps |AVO, КвК|
Язык : Russian
Default : Нет
Forced : Нет
Аудио #3
Идентификатор : 4
Формат : DTS
Формат/Информация : Digital Theater Systems
Режим : 16
Параметр Endianness формата : Big
Идентификатор кодека : A_DTS
Продолжительность : 1 ч. 56 м.
Вид битрейта : Постоянный
Битрейт : 1510 Кбит/сек
Каналы : 6 каналов
Расположение каналов : Front: L C R, Side: L R, LFE
Частота : 48,0 КГц
Битовая глубина : 16 бит
Метод сжатия : С потерями
Размер потока : 1,23 Гбайт (13%)
Заголовок : DTS 5.1 - 1536 kbps |AVO, seqw0|
Язык : Russian
Default : Нет
Forced : Нет
Аудио #4
Идентификатор : 5
Формат : AC-3
Формат/Информация : Audio Coding 3
Расширение режима : CM (complete main)
Параметр Endianness формата : Big
Идентификатор кодека : A_AC3
Продолжительность : 1 ч. 56 м.
Вид битрейта : Постоянный
Битрейт : 640 Кбит/сек
Каналы : 6 каналов
Расположение каналов : Front: L C R, Side: L R, LFE
Частота : 48,0 КГц
Битовая глубина : 16 бит
Метод сжатия : С потерями
Размер потока : 532 Мбайт (5%)
Заголовок : DD 5.1 - 640 kbps |Оригинал|
Язык : English
Default : Нет
Forced : Нет
Текст #1
Идентификатор : 6
Формат : UTF-8
Идентификатор кодека : S_TEXT/UTF8
Идентификатор кодека/Информация : UTF-8 Plain Text
Заголовок : Надписи и т.д
Язык : Russian
Default : Да
Forced : Нет
Текст #2
Идентификатор : 7
Формат : UTF-8
Идентификатор кодека : S_TEXT/UTF8
Идентификатор кодека/Информация : UTF-8 Plain Text
Заголовок : Voronine
Язык : Russian
Default : Нет
Forced : Нет
Текст #3
Идентификатор : 8
Формат : UTF-8
Идентификатор кодека : S_TEXT/UTF8
Идентификатор кодека/Информация : UTF-8 Plain Text
Заголовок : seqw0
Язык : Russian
Default : Нет
Forced : Нет
Текст #4
Идентификатор : 9
Формат : UTF-8
Идентификатор кодека : S_TEXT/UTF8
Идентификатор кодека/Информация : UTF-8 Plain Text
Язык : English
Default : Нет
Forced : Нет

Скриншоты

Source....................................Encode...................................[url=http://***/forum/viewtopic.php?t=3344696]PiPicK[/url]




Скачать

Скачать торрент!

Как скачивать? · Что такое торрент? · Рейтинг и ограничения

Сайт не распространяет и не хранит электронные версии произведений, а лишь предоставляет доступ к создаваемому пользователями каталогу ссылок на торрент-файлы, которые содержат только списки хеш-сумм

[Профиль] [ЛС]
Показать сообщения:    
Ответить на тему

Текущее время: Сегодня 00:18

Часовой пояс: GMT + 4



Вы не можете начинать темы
Вы не можете отвечать на сообщения
Вы не можете редактировать свои сообщения
Вы не можете удалять свои сообщения
Вы не можете голосовать в опросах
Вы не можете прикреплять файлы к сообщениям
Вы не можете скачивать файлы