Трогательное чувство / Touchy Feely (Линн Шелтон / Lynn Shelton) [2013, США, Комедия, Драма, DVDRip-AVC] VO (humbert sound studio)

Ответить на тему
 
Автор Сообщение

user ®

Стаж: 7 лет 7 месяцев

Сообщений: 20008

Пост Пост: #1 от 29-Дек-2013 00:05

[Цитировать]

Трогательное чувство / Touchy Feely
Страна: США
Жанр: Комедия, Драма
Год выпуска: 2013
Продолжительность: 01:28:14
Озвучка: Одноголосая закадровая humbert sound studio
Переводчики: ayaleto, ulkoalex, JackieBrown, KillKick, CornBiscuit, Guven, Assepoester
Cубтитры: нет
Режиссер: Линн Шелтон / Lynn Shelton
В ролях: Розмари ДеУитт, Джош Пэйс, Эллен Пейдж, Скут МакНэйри, Эллисон Дженни, Рон Ливингстон, Эмбер Вульф Уоллэм, Этель Р.Динс, Шеннон Кипп, Томо Накаяма
Описание:
Новая картина талантливого режиссера Линн Шелтон, которая в прошлом году представила нам картину Сестра твоей сестры, которая пользовалась довольно неплохим интересом со стороны критиков.
В то время, как дантист-неудачник открывает у себя дар исцелять одним прикосновением, его сестра-массажист внезапно терпит профессиональный крах из-за отвращения к телесному контакту.
"А сюжет и не важен. И даже не нужно удивляться, что трейлер фильма «Трогательное чувство» получился очень трогательным. Любовные многоугольники, но не мерзкие тайные, а просто болезненно безответные, боязнь серьезных отношений и многое-многое другое. И хоть об Эллен Пейдж мы традиционно говорим плохо, но даже к ней придраться не получится. Так что хороший наш ждет фильм. Милый, добрый и трогательный. Хотя ничего особенного, конечно." (КиноРевю.com)
Сэмпл: http://yadi.sk/d/Em5-oNSeF7aav
Качество видео: DVDRip-AVC
Формат видео: MKV
Видео: 720*400, 1959 Кбит/сек, 24 кадра/сек
Аудио: AC3, 2 канала, 16 бит, 44,1 КГц, 224 Кбит/сек

MediaInfo

Общее
Уникальный идентификатор : 98675501387412862792692391684311818016 (0x4A3C35D58FD14DD59A87701214F71F20)
Полное имя : C:\ISO\Touchy.Feely.2013.DVDRip-AVC.humbertsoundstudio.mkv
Формат : Matroska
Версия формата : Version 2
Размер файла : 1,35 Гбайт
Продолжительность : 1 ч. 28 м.
Общий поток : 2187 Кбит/сек
Программа кодирования : Lavf52.94.0
Библиотека кодирования : Lavf52.94.0
Видео
Идентификатор : 1
Формат : AVC
Формат/Информация : Advanced Video Codec
Профиль формата : High@L3.0
Параметр CABAC формата : Да
Параметр ReFrames формата : 2 кадра
Идентификатор кодека : V_MPEG4/ISO/AVC
Продолжительность : 1 ч. 28 м.
Битрейт : 1959 Кбит/сек
Ширина : 720 пикселей
Высота : 400 пикселей
Соотношение сторон : 16:9
Режим частоты кадров : Постоянный
Частота кадров : 24,000 кадра/сек
Цветовое пространство : YUV
Субдискретизация насыщенности : 4:2:0
Битовая глубина : 8 бит
Тип развёртки : Прогрессивная
Бит/(Пиксели*Кадры) : 0.283
Размер потока : 1,18 Гбайт (88%)
Библиотека кодирования : x264 core 112 r1834 a51816a
Настройки программы : cabac=1 / ref=2 / deblock=1:0:0 / analyse=0x3:0x113 / me=hex / subme=6 / psy=1 / psy_rd=1.00:0.00 / mixed_ref=0 / me_range=16 / chroma_me=1 / trellis=0 / 8x8dct=1 / cqm=0 / deadzone=21,11 / fast_pskip=1 / chroma_qp_offset=-2 / threads=4 / sliced_threads=0 / nr=0 / decimate=1 / interlaced=0 / constrained_intra=0 / bframes=3 / b_pyramid=0 / b_adapt=1 / b_bias=0 / direct=3 / weightb=1 / open_gop=0 / weightp=2 / keyint=250 / keyint_min=25 / scenecut=40 / intra_refresh=0 / rc_lookahead=40 / rc=2pass / mbtree=1 / bitrate=1959 / ratetol=1.0 / qcomp=0.60 / qpmin=10 / qpmax=51 / qpstep=4 / cplxblur=20.0 / qblur=0.5 / ip_ratio=1.41 / aq=1:1.00
Default : Да
Forced : Нет
Аудио
Идентификатор : 2
Формат : AC-3
Формат/Информация : Audio Coding 3
Расширение режима : CM (complete main)
Параметр Endianness формата : Big
Идентификатор кодека : A_AC3
Продолжительность : 1 ч. 28 м.
Вид битрейта : Постоянный
Битрейт : 224 Кбит/сек
Каналы : 2 канала
Расположение каналов : Front: L R
Частота : 44,1 КГц
Битовая глубина : 16 бит
Метод сжатия : С потерями
Размер потока : 141 Мбайт (10%)
Default : Да
Forced : Нет

Скриншот c названием фильма

Скриншоты

Скачать

Скачать торрент!

Как скачивать? · Что такое торрент? · Рейтинг и ограничения

Сайт не распространяет и не хранит электронные версии произведений, а лишь предоставляет доступ к создаваемому пользователями каталогу ссылок на торрент-файлы, которые содержат только списки хеш-сумм

[Профиль] [ЛС]
Показать сообщения:    
Ответить на тему

Текущее время: Сегодня 07:04

Часовой пояс: GMT + 4



Вы не можете начинать темы
Вы не можете отвечать на сообщения
Вы не можете редактировать свои сообщения
Вы не можете удалять свои сообщения
Вы не можете голосовать в опросах
Вы не можете прикреплять файлы к сообщениям
Вы не можете скачивать файлы