Ведьмы из Сугаррамурди / Las brujas de Zugarramurdi (Алекс де ла Иглесиа / Alex de la Iglesia) [2013, Испания, Франция, ужасы, драма, комедия, DVDRip] Dub (лицензия)

Ответить на тему
 
Автор Сообщение

user ®

Стаж: 7 лет 7 месяцев

Сообщений: 20008

Пост Пост: #1 от 28-Дек-2013 20:55

[Цитировать]

Ведьмы из Сугаррамурди / Las brujas de Zugarramurdi
Страна: Испания, Франция
Жанр: ужасы, драма, комедия
Год выпуска: 2013
Продолжительность: 01:49:27
Перевод: Профессиональный (дублированный) лицензия
Cубтитры: нет
Режиссер: Алекс де ла Иглесиа / Alex de la Iglesia
В ролях: Уго Силва, Марио Касас, Хавьер Ботет, Сантьяго Сегура, Кармен Маура, Каролина Банг, Карлос Аресес, Секун де ла Роса, Энрике Вильен, Макарена Гомес
Описание: Трое незадачливых воришек попадают в заколдованный город, где на протяжении веков правят бал коварные ведьмы. Задача героев проста — унести ноги из страшного места. Для этого надо постараться не влюбиться в обитательниц этого гиблого места… Сюжет основан на подлинной истории, которая случилась здесь в начале XVII века, когда одна из жительниц деревни заявила, что она ведьма и регулярно участвует в шабашах в близлежащих пещерах со своими соседками. Тогда Святая Инквизиция арестовала почти всё население Сугаррамурди и окрестных сёл (около 300 человек), устроив суд по делу «Ведьминской деревни», который длился два года. В результате в 1610 году 40 жителей деревни были обвинены в колдовстве, а 11 из них — сожжены на костре. С тех пор Сугаррамурди запечатлелся в коллективной памяти как обиталище ведьм.
Сэмпл: http://www.sendspace.com/file/gznpdi
Качество видео: DVDRip
Формат видео: AVI
Видео: 720x304 (2.37:1), 25 fps, XviD build 50, 1516 kbps avg, 0.28 bit/pixel
Аудио: 48 kHz, AC3 Dolby Digital, 3/2 (L,C,R,l,r) + LFE ch, 384 kbps

MediaInfo

Vedmy.iz.Sugarramurdi.2013.D.DVDRip.avi
Format : AVI
Format/Info : Audio Video Interleave
File size : 1.46 GiB
Duration : 1h 49mn
Overall bit rate : 1 910 Kbps
Writing application : VirtualDubMod 1.5.10.2 (build 2540/release)
Writing library : VirtualDubMod build 2540/release
Video #0
ID : 0
Format : MPEG-4 Visual
Format profile : Advanced Simple@L5
Format settings, BVOP : 2
Format settings, QPel : No
Format settings, GMC : No warppoints
Format settings, Matrix : Default (MPEG)
Codec ID : XVID
Codec ID/Hint : XviD
Duration : 1h 49mn
Bit rate : 1 442 Kbps
Width : 720 pixels
Height : 304 pixels
Display aspect ratio : 2.35:1
Frame rate : 25.000 fps
Color space : YUV
Chroma subsampling : 4:2:0
Bit depth : 8 bits
Scan type : Progressive
Compression mode : Lossy
Bits/(Pixel*Frame) : 0.263
Stream size : 1.10 GiB (75%)
Writing library : XviD 1.2.1 (UTC 2008-12-04)
Audio #1
ID : 1
Format : AC-3
Format/Info : Audio Coding 3
Mode extension : CM (complete main)
Codec ID : 2000
Duration : 1h 49mn
Bit rate mode : Constant
Bit rate : 384 Kbps
Channel(s) : 6 channels
Channel positions : Front: L C R, Side: L R, LFE
Sampling rate : 48.0 KHz
Bit depth : 16 bits
Compression mode : Lossy
Stream size : 300 MiB (20%)
Alignment : Split accross interleaves

Скриншот c названием фильма

Скриншоты

Скачать

Скачать торрент!

Как скачивать? · Что такое торрент? · Рейтинг и ограничения

Сайт не распространяет и не хранит электронные версии произведений, а лишь предоставляет доступ к создаваемому пользователями каталогу ссылок на торрент-файлы, которые содержат только списки хеш-сумм

[Профиль] [ЛС]
Показать сообщения:    
Ответить на тему

Текущее время: Сегодня 14:43

Часовой пояс: GMT + 4



Вы не можете начинать темы
Вы не можете отвечать на сообщения
Вы не можете редактировать свои сообщения
Вы не можете удалять свои сообщения
Вы не можете голосовать в опросах
Вы не можете прикреплять файлы к сообщениям
Вы не можете скачивать файлы