Алан Партридж / Alan Partridge: Alpha Papa (Деклан Лауни / Declan Lowney) [2013, Комедия, BDRip-AVC] DVO (Paradox) + Original (eng) + Sub (eng)

Ответить на тему
 
Автор Сообщение

user ®

Стаж: 7 лет 7 месяцев

Сообщений: 20008

Пост Пост: #1 от 28-Дек-2013 17:45

[Цитировать]

Алан Партридж / Alan Partridge: Alpha Papa
Страна: Великобритания, Франция / Baby Cow Films, Baby Cow Productions Ltd.
Жанр: Комедия
Год выпуска: 2013
Продолжительность: 01:30:10-Перевод: Любительский (двухголосый закадровый) Студия "Paradox"
Cубтитры: английские (Full + SDH + SDH-Colored)
Формат субтитров: softsub (SRT)
Оригинальная аудиодорожка: английский-Режиссер: Деклан Лауни / Declan Lowney
В ролях: Стив Куган, Колм Мини, Анна Максвелл Мартин, Шон Пертуи, Джессика Нэппет, Даррен Бойд, Моника Долан, Найджел Линдсэй, Саймон Делани, Фелисити Монтегю
Описание: Новый медиа-конгломерат подминает под себя радиостанцию Алана Партриджа, что приводит к череде событий, ведущих героя, которому теперь грозит опасность, к сотрудничеству с полицией.-
Релиз от:
Автор рипа: potroks-Качество видео: BDRip-AVC [Alan Partridge Alpha Papa 2013 BluRay 1080p AVC DTS-HD MA5.1-CHDBits]
Формат видео: MKV
Видео: х.264, 1132x474 (2,40:1), 23,976 fps, 2574 Кbps, 0.200 bit/pixel
Аудио#1: 48 kHz, AC3 Dolby Digital, 3/2 (L,C,R,l,r) + LFE ch, 448.00 kbps | RUS
Аудио#2: 48 kHz, AC3 Dolby Digital, 3/2 (L,C,R,l,r) + LFE ch, 448.00 kbps | ENG

MediaInfo

Общее
Уникальный идентификатор : 224345776982047191673807419735963652178 (0xA8C76CCB66AEBB80BE6112B37904D052)
Полное имя : Alan.Partridzh.2013.DUAL.BDRip.x264.-HELLYWOOD.mkv
Формат : Matroska
Версия формата : Version 4 / Version 2
Размер файла : 2,19 Гбайт
Продолжительность : 1 ч. 30 м.
Общий поток : 3471 Кбит/сек
Название фильма : HELLYWOOD - rip by potroks
Дата кодирования : UTC 2013-12-27 19:11:49
Программа кодирования : mkvmerge v5.9.0 ('On The Loose') built on Dec 15 2012 16:39:58
Библиотека кодирования : libebml v1.3.0 + libmatroska v1.4.0
Видео
Идентификатор : 1
Формат : AVC
Формат/Информация : Advanced Video Codec
Профиль формата : High@L4.1
Параметр CABAC формата : Да
Параметр ReFrames формата : 14 кадров
Идентификатор кодека : V_MPEG4/ISO/AVC
Продолжительность : 1 ч. 30 м.
Битрейт : 2574 Кбит/сек
Ширина : 1132 пикселя
Высота : 474 пикселя
Соотношение сторон : 2,40:1
Режим частоты кадров : Постоянный
Частота кадров : 23,976 кадра/сек
Цветовое пространство : YUV
Субдискретизация насыщенности : 4:2:0
Битовая глубина : 8 бит
Тип развёртки : Прогрессивная
Бит/(Пиксели*Кадры) : 0.200
Размер потока : 1,58 Гбайт (72%)
Заголовок : Alan Partridge: Alpha Papa
Библиотека кодирования : x264 core 130 r2273 b3065e6
Настройки программы : cabac=1 / ref=14 / deblock=1:-2:-1 / analyse=0x3:0x133 / me=umh / subme=11 / psy=1 / psy_rd=1.05:0.00 / mixed_ref=1 / me_range=32 / chroma_me=1 / trellis=2 / 8x8dct=1 / cqm=0 / deadzone=21,11 / fast_pskip=0 / chroma_qp_offset=-2 / threads=9 / lookahead_threads=7 / sliced_threads=0 / nr=0 / decimate=0 / interlaced=0 / bluray_compat=0 / constrained_intra=0 / bframes=15 / b_pyramid=2 / b_adapt=2 / b_bias=0 / direct=3 / weightb=1 / open_gop=0 / weightp=2 / keyint=250 / keyint_min=23 / scenecut=40 / intra_refresh=0 / rc_lookahead=60 / rc=2pass / mbtree=0 / bitrate=2574 / ratetol=1.0 / qcomp=0.70 / qpmin=0 / qpmax=69 / qpstep=4 / cplxblur=20.0 / qblur=0.5 / vbv_maxrate=20000 / vbv_bufsize=20000 / nal_hrd=none / ip_ratio=1.35 / pb_ratio=1.25 / aq=1:0.70
Язык : English
Default : Да
Forced : Нет
Аудио #1
Идентификатор : 2
Формат : AC-3
Формат/Информация : Audio Coding 3
Расширение режима : CM (complete main)
Параметр Endianness формата : Big
Идентификатор кодека : A_AC3
Продолжительность : 1 ч. 30 м.
Вид битрейта : Постоянный
Битрейт : 448 Кбит/сек
Каналы : 6 каналов
Расположение каналов : Front: L C R, Side: L R, LFE
Частота : 48,0 КГц
Битовая глубина : 16 бит
Метод сжатия : С потерями
Размер потока : 289 Мбайт (13%)
Заголовок : DVO | DD 5.1 @ 448 kbps - Студия "Paradox"
Язык : Russian
Default : Да
Forced : Да
Аудио #2
Идентификатор : 3
Формат : AC-3
Формат/Информация : Audio Coding 3
Расширение режима : CM (complete main)
Параметр Endianness формата : Big
Идентификатор кодека : A_AC3
Продолжительность : 1 ч. 30 м.
Вид битрейта : Постоянный
Битрейт : 448 Кбит/сек
Каналы : 6 каналов
Расположение каналов : Front: L C R, Side: L R, LFE
Частота : 48,0 КГц
Битовая глубина : 16 бит
Метод сжатия : С потерями
Размер потока : 289 Мбайт (13%)
Заголовок : Original | DD 5.1 @ 448 kbps
Язык : English
Default : Нет
Forced : Нет
Текст #1
Идентификатор : 4
Формат : UTF-8
Идентификатор кодека : S_TEXT/UTF8
Идентификатор кодека/Информация : UTF-8 Plain Text
Заголовок : Full
Язык : English
Default : Нет
Forced : Нет
Текст #2
Идентификатор : 5
Формат : UTF-8
Идентификатор кодека : S_TEXT/UTF8
Идентификатор кодека/Информация : UTF-8 Plain Text
Заголовок : SDH-Colored
Язык : English
Default : Нет
Forced : Нет
Текст #3
Идентификатор : 6
Формат : UTF-8
Идентификатор кодека : S_TEXT/UTF8
Идентификатор кодека/Информация : UTF-8 Plain Text
Заголовок : SDH
Язык : English
Default : Нет
Forced : Нет
Меню
00:00:00.000 : en:(01)00:00:00:000
00:07:03.506 : en:(02)00:07:03:506
00:16:15.516 : en:(03)00:16:15:516
00:22:16.084 : en:(04)00:22:16:084
00:27:33.568 : en:(05)00:27:33:568
00:35:04.852 : en:(06)00:35:04:852
00:43:19.847 : en:(07)00:43:19:847
00:48:10.387 : en:(08)00:48:10:387
00:55:20.191 : en:(09)00:55:20:191
01:02:38.129 : en:(10)01:02:38:129
01:10:35.231 : en:(11)01:10:35:231
01:16:07.813 : en:(12)01:16:07:813

log@x.264

x264 [info]: frame I:1179 Avg QP:13.55 size: 75962
x264 [info]: frame P:31187 Avg QP:16.51 size: 26397
x264 [info]: frame B:97346 Avg QP:17.94 size: 8494
x264 [info]: consecutive B-frames: 4.2% 4.4% 10.5% 19.5% 16.9% 33.4% 4.9% 1.3% 1.4% 0.7% 0.6% 0.4% 0.4% 0.3% 0.2% 1.0%
x264 [info]: mb I I16..4: 6.7% 69.5% 23.8%
x264 [info]: mb P I16..4: 0.8% 8.2% 1.5% P16..4: 30.9% 36.2% 14.0% 2.5% 0.3% skip: 5.6%
x264 [info]: mb B I16..4: 0.1% 0.6% 0.1% B16..8: 34.1% 23.3% 4.2% direct: 5.5% skip:32.1% L0:42.7% L1:42.8% BI:14.5%
x264 [info]: 8x8 transform intra:75.6% inter:55.1%
x264 [info]: direct mvs spatial:98.7% temporal:1.3%
x264 [info]: coded y,uvDC,uvAC intra: 86.0% 80.3% 61.9% inter: 23.9% 22.5% 11.5%
x264 [info]: i16 v,h,dc,p: 35% 13% 6% 46%
x264 [info]: i8 v,h,dc,ddl,ddr,vr,hd,vl,hu: 12% 9% 6% 9% 12% 12% 12% 13% 14%
x264 [info]: i4 v,h,dc,ddl,ddr,vr,hd,vl,hu: 15% 10% 6% 8% 14% 13% 12% 10% 12%
x264 [info]: i8c dc,h,v,p: 37% 27% 21% 15%
x264 [info]: Weighted P-Frames: Y:2.2% UV:0.9%
x264 [info]: ref P L0: 47.9% 9.8% 16.0% 6.1% 5.0% 3.5% 3.1% 1.7% 1.6% 1.2% 1.2% 1.0% 1.0% 0.9% 0.2% 0.0%
x264 [info]: ref B L0: 70.8% 12.1% 5.6% 2.9% 2.3% 1.7% 1.6% 0.8% 0.7% 0.6% 0.5% 0.3% 0.2%
x264 [info]: ref B L1: 92.2% 7.8%
x264 [info]: kb/s:2572.46

Скриншоты

Скачать

Скачать торрент!

Как скачивать? · Что такое торрент? · Рейтинг и ограничения

Сайт не распространяет и не хранит электронные версии произведений, а лишь предоставляет доступ к создаваемому пользователями каталогу ссылок на торрент-файлы, которые содержат только списки хеш-сумм

[Профиль] [ЛС]
Показать сообщения:    
Ответить на тему

Текущее время: Сегодня 22:35

Часовой пояс: GMT + 4



Вы не можете начинать темы
Вы не можете отвечать на сообщения
Вы не можете редактировать свои сообщения
Вы не можете удалять свои сообщения
Вы не можете голосовать в опросах
Вы не можете прикреплять файлы к сообщениям
Вы не можете скачивать файлы