Алан Партридж / Alan Partridge: Alpha Papa (Деклан Лауни / Declan Lowney) [2013, Великобритания, Франция, комедия, HDRip] DVO

Ответить на тему
 
Автор Сообщение

user ®

Стаж: 7 лет 7 месяцев

Сообщений: 20008

Пост Пост: #1 от 28-Дек-2013 11:45

[Цитировать]

Алан ПартриджAlan Partridge: Alpha Papa- Страна: Великобритания, Франция
Жанр: комедия
Год выпуска: 2013
Продолжительность: 01:30:10-Перевод: Любительский (двухголосый) [Студия "Paradox"]
Примечание: Присутствует ненормативная лексика!
Субтитры: нет
Режиссер: Деклан Лауни / Declan Lowney
В ролях: Стив Куган, Колм Мини, Анна Максвелл Мартин, Шон Пертуи, Джессика Нэппет, Даррен Бойд, Моника Долан, Найджел Линдсэй, Саймон Делани, Фелисити Монтегю, Саймон Гринхолл, Пол Блэкуэлл-Описание: Новый медиа-конгломерат подминает под себя радиостанцию Алана Партриджа, что приводит к череде событий, ведущих героя, которому теперь грозит опасность, к сотрудничеству с полицией.-

-

Доп. Информация

Сценарий: Питер Бейнхэм / Peter Baynham, Стив Куган / Steve Coogan, Neil Gibbons, Rob Gibbons, Армандо Ианнуччи / Armando Iannucci
Продюсер: Кевин Лоудер / Kevin Loader, Хенри Нормал / Henry Normal, Стив Куган / Steve Coogan, Дэнни Перкинс / Danny Perkins, Neil Gibbons
Оператор: Бен Смитхард / Ben Smithard
Сборы в мире: $9 573 673
Мировая премьера: 24 июля 2013
-Качество: HDRip
Контейнер: AVI
Видео: XviD, 720x304 (2.35:1), 1709 kbps, 23,976 fps, 0,326 bpp
Аудио: AC3 / 5.1 / 48 kHz / 448 kbps / 16 bit-

Media Info

General
Complete name : G:\Alan.Partridge.Alpha.Papa.2013.L2.HDRip_1400MB.avi
Format : AVI
Format/Info : Audio Video Interleave
File size : 1.36 GiB
Duration : 1h 30mn
Overall bit rate : 2 167 Kbps
Writing application : VirtualDubMod 1.5.10.2 (build 2542/release)
Writing library : VirtualDubMod build 2542/release
Video
ID : 0
Format : MPEG-4 Visual
Format profile : Advanced Simple@L5
Format settings, BVOP : 1
Format settings, QPel : No
Format settings, GMC : No warppoints
Format settings, Matrix : Default (H.263)
Codec ID : XVID
Codec ID/Hint : XviD
Duration : 1h 30mn
Bit rate : 1 710 Kbps
Width : 720 pixels
Height : 304 pixels
Display aspect ratio : 2.35:1
Frame rate : 23.976 fps
Color space : YUV
Chroma subsampling : 4:2:0
Bit depth : 8 bits
Scan type : Progressive
Compression mode : Lossy
Bits/(Pixel*Frame) : 0.326
Stream size : 1.08 GiB (79%)
Writing library : XviD 1.2.1 (UTC 2008-12-04)
Audio
ID : 1
Format : AC-3
Format/Info : Audio Coding 3
Mode extension : CM (complete main)
Codec ID : 2000
Duration : 1h 30mn
Bit rate mode : Constant
Bit rate : 448 Kbps
Channel(s) : 6 channels
Channel positions : Front: L C R, Side: L R, LFE
Sampling rate : 48.0 KHz
Bit depth : 16 bits
Compression mode : Lossy
Stream size : 289 MiB (21%)
Alignment : Split accross interleaves
Interleave, duration : 42 ms (1.00 video frame)
Interleave, preload duration : 500 ms

Скриншот с названием фильма

Скриншоты

Скачать

Скачать торрент!

Как скачивать? · Что такое торрент? · Рейтинг и ограничения

Сайт не распространяет и не хранит электронные версии произведений, а лишь предоставляет доступ к создаваемому пользователями каталогу ссылок на торрент-файлы, которые содержат только списки хеш-сумм

[Профиль] [ЛС]
Показать сообщения:    
Ответить на тему

Текущее время: Сегодня 13:52

Часовой пояс: GMT + 4



Вы не можете начинать темы
Вы не можете отвечать на сообщения
Вы не можете редактировать свои сообщения
Вы не можете удалять свои сообщения
Вы не можете голосовать в опросах
Вы не можете прикреплять файлы к сообщениям
Вы не можете скачивать файлы