Андроид / App (Бобо Боерманс / Bobby Boermans) [2013, Нидерланды, триллер, BDRip] Dub

Ответить на тему
 
Автор Сообщение

user ®

Стаж: 7 лет 7 месяцев

Сообщений: 20008

Пост Пост: #1 от 28-Дек-2013 11:45

[Цитировать]

АндроидApp- Страна: Нидерланды
Жанр: триллер
Год выпуска: 2013
Продолжительность: 01:18:43-Перевод: Профессиональный (полное дублирование) [Лицензия]
Субтитры: нет
Режиссер: Бобо Боерманс / Bobby Boermans
В ролях: Ханна Хекстра, Роберт де Хуг, Исис Каболе, Маттис ван де Санде Бакхуйзен, Марк ван Эувен, Лиза Сипс, Ерун Шпиценбергер, Алекс Хендрикс, Патрик Мартенс, Гиги Равелли, Харри ван Рейтховен-Описание: Симпатичная студентка Анна просыпается после вечеринки и обнаруживает на своем смартфоне загадочное приложение «Айрис»... Активируя приложение, Анна запускает головокружительную и трагическую череду событий в жизни своих друзей и знакомых. Кто за этим стоит? ...-

-

Доп. Информация

Сценарий: Роберт Артур Джэнсен / Robert Arthur Jansen
Продюсер: Кес Абрахамс / Kees Abrahams, Робин Де Левита / Robin de Levita, Эдвард ван 'т Вут / Edvard van 't Wout, Фелис Баккер / Felice Bakker, Роберт Артур Джэнсен / Robert Arthur Jansen
Оператор: Эзра Реверда / Ezra Reverda
Композитор: Херман Виткам / Herman Witkam
Бюджет: €1 500 000
Сборы в России: $313 990
Мировая премьера: 28 марта 2013
Релиз на DVD: 16 декабря 2013, «Новый Диск»
Релиз на Blu-ray: Январь 2014, «Новый Диск»
-Качество: BDRip [рип с BluRay 1080p]
Контейнер: AVI
Видео: XviD, 720x304 (2.35:1), 2028 kbps, 24 fps, 0,386 bpp
Аудио: AC3 / 5.1 / 48 kHz / 448 kbps / 16 bit-

Знаете ли Вы, что...

  • Первый фильм, который демонстрируется одновременно на двух экранах (экране кинотеатра и экране смартфона зрителя). Осуществляется это при помощи приложения, имеющего голосовое управление, которое в процессе просмотра фильма позволяет отображать на экране смартфона дополнительные изображения, истории и клипы (приложение работает только для фильма с английской озвучкой).

Media Info

General
Complete name : G:\Android.2013.D.BDRip_1400MB.avi
Format : AVI
Format/Info : Audio Video Interleave
File size : 1.37 GiB
Duration : 1h 18mn
Overall bit rate : 2 486 Kbps
Writing application : VirtualDubMod 1.5.10.2 (build 2540/release)
Writing library : VirtualDubMod build 2540/release
Video
ID : 0
Format : MPEG-4 Visual
Format profile : Advanced Simple@L5
Format settings, BVOP : 2
Format settings, QPel : No
Format settings, GMC : No warppoints
Format settings, Matrix : Custom
Codec ID : XVID
Codec ID/Hint : XviD
Duration : 1h 18mn
Bit rate : 2 029 Kbps
Width : 720 pixels
Height : 304 pixels
Display aspect ratio : 2.35:1
Frame rate : 24.000 fps
Color space : YUV
Chroma subsampling : 4:2:0
Bit depth : 8 bits
Scan type : Progressive
Compression mode : Lossy
Bits/(Pixel*Frame) : 0.386
Stream size : 1.12 GiB (82%)
Writing library : XviD 1.2.1 (UTC 2008-12-04)
Audio
ID : 1
Format : AC-3
Format/Info : Audio Coding 3
Mode extension : CM (complete main)
Codec ID : 2000
Duration : 1h 18mn
Bit rate mode : Constant
Bit rate : 448 Kbps
Channel(s) : 6 channels
Channel positions : Front: L C R, Side: L R, LFE
Sampling rate : 48.0 KHz
Bit depth : 16 bits
Compression mode : Lossy
Stream size : 252 MiB (18%)
Alignment : Split accross interleaves
Interleave, duration : 42 ms (1.00 video frame)
Interleave, preload duration : 500 ms

Скриншот с названием фильма

Скриншоты

Скачать

Скачать торрент!

Как скачивать? · Что такое торрент? · Рейтинг и ограничения

Сайт не распространяет и не хранит электронные версии произведений, а лишь предоставляет доступ к создаваемому пользователями каталогу ссылок на торрент-файлы, которые содержат только списки хеш-сумм

[Профиль] [ЛС]
Показать сообщения:    
Ответить на тему

Текущее время: Сегодня 10:07

Часовой пояс: GMT + 4



Вы не можете начинать темы
Вы не можете отвечать на сообщения
Вы не можете редактировать свои сообщения
Вы не можете удалять свои сообщения
Вы не можете голосовать в опросах
Вы не можете прикреплять файлы к сообщениям
Вы не можете скачивать файлы