Сезон убийц / Killing Season (Марк Стивен Джонсон / Mark Steven Johnson) [2013, Бельгия, Триллер, HDRip] MVO

Ответить на тему
 
Автор Сообщение

user ®

Стаж: 7 лет 7 месяцев

Сообщений: 20008

Пост Пост: #1 от 28-Дек-2013 11:45

[Цитировать]

Сезон убийц / Killing Season
Страна: Бельгия
Жанр: Триллер
Год выпуска: 2013
Продолжительность: 01:30:44
Перевод: Профессиональный (многоголосый закадровый)
Cубтитры: нет
Режиссер: Марк Стивен Джонсон / Mark Steven Johnson
В ролях: Джон Траволта, Роберт Де Ниро, Майло Вентимилья, Элизабет Олин, Диана Любенова, Стефан Штерев
Описание: История о ветеранах войны в Боснии — американце и сербе, которые, спустя много лет после событий в Европе, устраивают свою личную Третью мировую войну, пытаясь свести счеты.
Сэмпл: http://sendfile.su/915036
Качество видео: HDRip
Формат видео: AVI
Видео: 688x384, 23,976 fps, 1008 kbps avg, 0.159 bit/pixel
Аудио: 48 kHz, MP3, 2 ch, ~128 kbps

MediaInfo

Sezon.Ubiyc.2013.HDRip.745.avi
Format : AVI
Format/Info : Audio Video Interleave
File size : 743 MiB
Duration : 1h 30mn
Overall bit rate : 1 145 Kbps
Movie name : Sezon.Ubiyc.2013.HDRip.745.[torrange.org]
Writing application : VirtualDubMod 1.5.10.2 (build 2540/release)
Video #0
ID : 0
Format : MPEG-4 Visual
Format profile : Advanced Simple@L5
Format settings, BVOP : 2
Format settings, QPel : No
Format settings, GMC : No warppoints
Format settings, Matrix : Default (MPEG)
Codec ID : XVID
Codec ID/Hint : XviD
Duration : 1h 30mn
Bit rate : 1 008 Kbps
Width : 688 pixels
Height : 384 pixels
Display aspect ratio : 16:9
Frame rate : 23.976 fps
Color space : YUV
Chroma subsampling : 4:2:0
Bit depth : 8 bits
Scan type : Progressive
Compression mode : Lossy
Bits/(Pixel*Frame) : 0.159
Stream size : 654 MiB (88%)
Writing library : XviD 65
Audio #1
ID : 1
Format : MPEG Audio
Format version : Version 1
Format profile : Layer 3
Codec ID : 55
Codec ID/Hint : MP3
Duration : 1h 30mn
Bit rate mode : Constant
Bit rate : 128 Kbps
Channel(s) : 2 channels
Sampling rate : 48.0 KHz
Compression mode : Lossy
Stream size : 83.1 MiB (11%)
Alignment : Aligned on interleaves
Interleave, duration : 42 ms (1.00 video frame)
Interleave, preload duration : 504 ms
Writing library : LAMELAME_MAJOR_VERSI

Скриншот c названием фильма

Скриншоты

Скачать

Скачать торрент!

Как скачивать? · Что такое торрент? · Рейтинг и ограничения

Сайт не распространяет и не хранит электронные версии произведений, а лишь предоставляет доступ к создаваемому пользователями каталогу ссылок на торрент-файлы, которые содержат только списки хеш-сумм

[Профиль] [ЛС]
Показать сообщения:    
Ответить на тему

Текущее время: Сегодня 07:52

Часовой пояс: GMT + 4



Вы не можете начинать темы
Вы не можете отвечать на сообщения
Вы не можете редактировать свои сообщения
Вы не можете удалять свои сообщения
Вы не можете голосовать в опросах
Вы не можете прикреплять файлы к сообщениям
Вы не можете скачивать файлы