Мамы (Евгений Абызов, Сарик Андреасян, Алан Бадоев, Дмитрий Дюжев, Ашот Кещян, Кирилл Козлов, Тихон Корнев...) [2012, комедия, мелодрама, HDRip]

Ответить на тему
 
Автор Сообщение

user ®

Стаж: 7 лет 7 месяцев

Сообщений: 20008

Пост Пост: #1 от 28-Дек-2013 02:15

[Цитировать]

Мамы
Жанр: комедия, мелодрама
Год выпуска: 2012
Продолжительность: 01:41:14
Режиссёр: Евгений Абызов, Сарик Андреасян, Алан Бадоев, Дмитрий Дюжев, Ашот Кещян, Кирилл Козлов, Тихон Корнев, Карен Оганесян, Эльдар Салаватов--В ролях: Сергей Безруков, Дмитрий Дюжев, Михаил Пореченков, Егор Бероев, Гоша Куценко, Петр Федоров, Федор Добронравов, Иван Добронравов, Игорь Верник, Александр Олешко--Описание: Каждый год в день 8-го марта телефонные сети России передают миллионы звонков и смс-сообщений. Трудолюбивые аналитики подсчитали, что абсолютное большинство телефонных звонков адресовано самым главным женщинам в жизни каждого человека - мамам.
Мы выросли, и заготовленные заранее аппликации и букеты цветов, купленные до маминого пробуждения, - давно забытые детские привычки. Отныне мы поздравляем мам по-взрослому: дожидаемся, когда они проснутся, и набираем телефонный номер.
Но что, если случится коллапс, и из-за пиковой перегруженности телефонная сеть рухнет? Итак, связи нет. Что делать? Кто-то будет ждать, пока её восстановят - поздравит вечером или даже на следующий день. А другие, как и герои нашего киноальманаха, поменяют свои планы, чтобы поздравить своих мам именно сегодня... лично... как в детстве!
Восемь разных поздравлений и жизненных ситуаций. Восемь разных МАМ.--Качество видео: HDRip
Формат видео: AVI
Видео: 640x272 (2.35:1), 25 fps, XviD build 50 ~887 kbps avg, 0.20 bit/pixel
Аудио: 48 kHz, MPEG Layer 3, 2 ch, ~128.00 kbps avg

Скриншоты

MediaInfo

General
Complete name : Мамы.avi
Format : AVI
Format/Info : Audio Video Interleave
File size : 743 MiB
Duration : 1h 41mn
Overall bit rate : 1 026 Kbps
Writing application : VirtualDubMod 1.5.10.2 (build 2540/release)
Writing library : VirtualDubMod build 2540/release
Video
ID : 0
Format : MPEG-4 Visual
Format profile : Advanced Simple@L5
Format settings, BVOP : 1
Format settings, QPel : No
Format settings, GMC : No warppoints
Format settings, Matrix : Custom
Codec ID : XVID
Codec ID/Hint : XviD
Duration : 1h 41mn
Bit rate : 888 Kbps
Width : 640 pixels
Height : 272 pixels
Display aspect ratio : 2.35:1
Frame rate : 25.000 fps
Color space : YUV
Chroma subsampling : 4:2:0
Bit depth : 8 bits
Scan type : Progressive
Compression mode : Lossy
Bits/(Pixel*Frame) : 0.204
Stream size : 643 MiB (87%)
Writing library : XviD 1.2.1 (UTC 2008-12-04)
Audio
ID : 1
Format : MPEG Audio
Format version : Version 1
Format profile : Layer 3
Codec ID : 55
Codec ID/Hint : MP3
Duration : 1h 41mn
Bit rate mode : Constant
Bit rate : 128 Kbps
Channel count : 2 channels
Sampling rate : 48.0 KHz
Compression mode : Lossy
Stream size : 92.7 MiB (12%)
Alignment : Aligned on interleaves
Interleave, duration : 40 ms (1.00 video frame)
Interleave, preload duration : 504 ms
Writing library : LAME3.97
Encoding settings : -m s -V 4 -q 2 -lowpass 17 -b 128
Скачать

Скачать торрент!

Как скачивать? · Что такое торрент? · Рейтинг и ограничения

Сайт не распространяет и не хранит электронные версии произведений, а лишь предоставляет доступ к создаваемому пользователями каталогу ссылок на торрент-файлы, которые содержат только списки хеш-сумм

[Профиль] [ЛС]
Показать сообщения:    
Ответить на тему

Текущее время: Сегодня 11:43

Часовой пояс: GMT + 4



Вы не можете начинать темы
Вы не можете отвечать на сообщения
Вы не можете редактировать свои сообщения
Вы не можете удалять свои сообщения
Вы не можете голосовать в опросах
Вы не можете прикреплять файлы к сообщениям
Вы не можете скачивать файлы