Она прекрасна / She\'s So Lovely (Ник Кассаветис / Nick Cassavetes) [1997, Франция, США, драма, BDRip 1080p] 2x MVO + Original Eng + subs (Rus, Eng)

Ответить на тему
 
Автор Сообщение

user ®

Стаж: 7 лет 7 месяцев

Сообщений: 20008

Пост Пост: #1 от 27-Дек-2013 20:10

[Цитировать]

Она прекрасна / She's So Lovely- Год выпуска: 1997
Страна: Франция, США
Жанр: драма
Продолжительность: 01:36:24
Перевод #1: Профессиональный (Многоголосый закадровый)
Перевод #2: Профессиональный (Многоголосый закадровый) Премьер Видео
Оригинальная звуковая дорожка: English
Cубтитры: Russian, English-Режиссер: Ник Кассаветис / Nick Cassavetes
В ролях: Шон Пенн, Робин Райт, Джон Траволта, Джеймс Гандольфини, Сьюзен Трейлор, Гарри Дин Стэнтон, Деби Мейзар, Бобби Купер, Джон Маршалл Джонс, Хлоя Уэбб
О фильме: Молодые супруги Эдди и Морин безумно влюблены друг в друга. Но когда пьяный сосед начинает приставать к Морин, несдержанный, к тому же, вечно под кайфом, Эдди бросается на него, после чего попадает в тюрьму на десять лет. Возвратившись, он обнаруживает, что Морин вышла замуж за положительного Джоуи, который любит ее не меньше, чем он сам. Морин разрывается между прошлым и настоящим, между двумя мужчинами, которые ей дороги…-Релиз: by Electr0man
Формат: MKV
Видео: 1920x820 at 23.976 fps, x264@L4.1, crf, ~14881 kbps avg
Аудио #1: Russian: 48 kHz, AC3, 3/2 (L,C,R,l,r) + LFE ch, ~448.00 kbps avg |Многоголосый закадровый|
Аудио #2: Russian: 48 kHz, AC3, 2/0 (L,R) ch, ~192.00 kbps avg |Многоголосый закадровый, Премьер Видео|
Аудио #3: English: 48 kHz, DTS, 3/2 (L,C,R,l,r) + LFE ch, ~1509.00 kbps avg
Семпл-

Скриншоты


-

mInfo


Format : Matroska
Format version : Version 2
File size : 11.5 GiB
Duration : 1h 36mn
Overall bit rate : 17.0 Mbps
Movie name : Она прекрасна / She's So Lovely (1997) - Release for HDClub
Encoded date : UTC 2013-12-06 20:18:31
Writing application : mkvmerge v5.5.0 ('Healer') built on Apr 6 2012 21:43:24
Writing library : libebml v1.2.3 + libmatroska v1.3.0
Video
ID : 1
Format : AVC
Format/Info : Advanced Video Codec
Format profile : High@L4.1
Format settings, CABAC : Yes
Format settings, ReFrames : 4 frames
Codec ID : V_MPEG4/ISO/AVC
Duration : 1h 36mn
Bit rate : 14.5 Mbps
Width : 1 920 pixels
Height : 820 pixels
Display aspect ratio : 2.35:1
Frame rate mode : Constant
Frame rate : 23.976 fps
Color space : YUV
Chroma subsampling : 4:2:0
Bit depth : 8 bits
Scan type : Progressive
Bits/(Pixel*Frame) : 0.385
Stream size : 9.79 GiB (85%)
Title : Она прекрасна / She's So Lovely (1997) - Release for HDClub
Writing library : x264 core 138 r2358 9e941d1
Encoding settings : cabac=1 / ref=4 / deblock=1:-3:-3 / analyse=0x3:0x133 / me=tesa / subme=11 / psy=1 / psy_rd=1.05:0.00 / mixed_ref=1 / me_range=32 / chroma_me=1 / trellis=2 / 8x8dct=1 / cqm=0 / deadzone=21,11 / fast_pskip=0 / chroma_qp_offset=-2 / threads=6 / lookahead_threads=1 / sliced_threads=0 / nr=0 / decimate=1 / interlaced=0 / bluray_compat=0 / constrained_intra=0 / bframes=7 / b_pyramid=2 / b_adapt=2 / b_bias=0 / direct=1 / weightb=1 / open_gop=0 / weightp=2 / keyint=240 / keyint_min=23 / scenecut=40 / intra_refresh=0 / rc_lookahead=60 / rc=crf / mbtree=0 / crf=17.0 / qcomp=0.60 / qpmin=0 / qpmax=69 / qpstep=4 / vbv_maxrate=62500 / vbv_bufsize=78125 / crf_max=0.0 / nal_hrd=none / ip_ratio=1.30 / pb_ratio=1.20 / aq=2:1.00
Language : English
Default : Yes
Forced : No
Audio #1
ID : 2
Format : AC-3
Format/Info : Audio Coding 3
Mode extension : CM (complete main)
Format settings, Endianness : Big
Codec ID : A_AC3
Duration : 1h 36mn
Bit rate mode : Constant
Bit rate : 448 Kbps
Channel count : 6 channels
Channel positions : Front: L C R, Side: L R, LFE
Sampling rate : 48.0 KHz
Bit depth : 16 bits
Compression mode : Lossy
Stream size : 309 MiB (3%)
Title : Многоголосый закадровый
Language : Russian
Default : Yes
Forced : No
Audio #2
ID : 3
Format : AC-3
Format/Info : Audio Coding 3
Mode extension : CM (complete main)
Format settings, Endianness : Big
Codec ID : A_AC3
Duration : 1h 36mn
Bit rate mode : Constant
Bit rate : 192 Kbps
Channel count : 2 channels
Channel positions : Front: L R
Sampling rate : 48.0 KHz
Bit depth : 16 bits
Compression mode : Lossy
Stream size : 132 MiB (1%)
Title : Многоголосый закадровый (Премьер Видео)
Language : Russian
Default : No
Forced : No
Audio #3
ID : 4
Format : DTS
Format/Info : Digital Theater Systems
Mode : 16
Format settings, Endianness : Big
Codec ID : A_DTS
Duration : 1h 36mn
Bit rate mode : Constant
Bit rate : 1 509 Kbps
Channel count : 6 channels
Channel positions : Front: L C R, Side: L R, LFE
Sampling rate : 48.0 KHz
Bit depth : 24 bits
Compression mode : Lossy
Stream size : 1.02 GiB (9%)
Title : Original
Language : English
Default : No
Forced : No
Text #1
ID : 5
Format : UTF-8
Codec ID : S_TEXT/UTF8
Codec ID/Info : UTF-8 Plain Text
Language : Russian
Default : No
Forced : No
Text #2
ID : 6
Format : UTF-8
Codec ID : S_TEXT/UTF8
Codec ID/Info : UTF-8 Plain Text
Language : English
Default : No
Forced : No
Menu
00:00:00.000 : en:00:00:00.000
00:12:23.784 : en:00:12:23.784
00:20:23.347 : en:00:20:23.347
00:28:46.808 : en:00:28:46.808
00:34:10.423 : en:00:34:10.423
00:44:07.102 : en:00:44:07.102
00:54:16.169 : en:00:54:16.169
00:59:44.789 : en:00:59:44.789
01:05:26.005 : en:01:05:26.005
01:13:30.155 : en:01:13:30.155
01:21:52.282 : en:01:21:52.282
01:31:25.855 : en:01:31:25.855

-

x264

raw [info]: 1920x820p 1:1 @ 24000/1001 fps (cfr)
x264 [info]: using SAR=1/1
x264 [info]: using cpu capabilities: MMX2 SSE2Fast SSSE3 SSE4.2 AVX
x264 [info]: profile High, level 4.1
x264 [info]: frame I:932 Avg QP:15.33 size:153786
x264 [info]: frame P:26096 Avg QP:16.43 size:102503
x264 [info]: frame B:111636 Avg QP:17.87 size: 71122
x264 [info]: consecutive B-frames: 1.1% 1.3% 3.7% 9.4% 9.8% 65.7% 6.9% 2.1%
x264 [info]: mb I I16..4: 2.9% 88.2% 8.9%
x264 [info]: mb P I16..4: 1.6% 43.3% 2.9% P16..4: 18.3% 23.1% 7.6% 1.0% 0.0% skip: 2.1%
x264 [info]: mb B I16..4: 0.5% 12.8% 0.5% B16..8: 37.2% 23.1% 4.9% direct:15.9% skip: 5.1% L0:43.8% L1:41.8% BI:14.4%
x264 [info]: 8x8 transform intra:91.6% inter:59.1%
x264 [info]: coded y,uvDC,uvAC intra: 94.5% 72.9% 30.6% inter: 74.3% 59.4% 2.9%
x264 [info]: i16 v,h,dc,p: 9% 8% 12% 71%
x264 [info]: i8 v,h,dc,ddl,ddr,vr,hd,vl,hu: 10% 8% 15% 9% 11% 10% 11% 11% 13%
x264 [info]: i4 v,h,dc,ddl,ddr,vr,hd,vl,hu: 27% 10% 15% 6% 9% 9% 9% 7% 9%
x264 [info]: i8c dc,h,v,p: 31% 36% 24% 10%
x264 [info]: Weighted P-Frames: Y:3.2% UV:1.8%
x264 [info]: ref P L0: 47.2% 10.5% 26.5% 15.1% 0.7% 0.0%
x264 [info]: ref B L0: 81.3% 15.5% 3.3%
x264 [info]: ref B L1: 88.2% 11.8%
x264 [info]: kb/s:14881.12
encoded 138664 frames, 1.22 fps, 14881.12 kb/s

-

*** Сохранены оригинальные чаптеры как на Blu-ray.
*** За оцифровку дорожки Премьер Видео с VHS спасибо team_6strun.
Скачать

Скачать торрент!

Как скачивать? · Что такое торрент? · Рейтинг и ограничения

Сайт не распространяет и не хранит электронные версии произведений, а лишь предоставляет доступ к создаваемому пользователями каталогу ссылок на торрент-файлы, которые содержат только списки хеш-сумм

[Профиль] [ЛС]
Показать сообщения:    
Ответить на тему

Текущее время: Сегодня 14:44

Часовой пояс: GMT + 4



Вы не можете начинать темы
Вы не можете отвечать на сообщения
Вы не можете редактировать свои сообщения
Вы не можете удалять свои сообщения
Вы не можете голосовать в опросах
Вы не можете прикреплять файлы к сообщениям
Вы не можете скачивать файлы