Прибежище / Faro (Фредрик Эдфельдт / Fredrik Edfeldt) [2013, Швеция, Финляндия, драма, приключения, DVDRip] VO (datynet)

Ответить на тему
 
Автор Сообщение

user ®

Стаж: 7 лет 7 месяцев

Сообщений: 20008

Пост Пост: #1 от 27-Дек-2013 20:10

[Цитировать]

ПрибежищеFaro- Страна: Швеция, Финляндия
Жанр: драма, приключения
Год выпуска: 2013
Продолжительность: 01:27:22-Перевод: Одноголосый закадровый [datynet]
Субтитры: нет
Режиссер: Фредрик Эдфельдт / Fredrik Edfeldt
В ролях: Якоб Седергрен, Клара Кристианссон, Мария Хейсканен, Гуннель Фред, Пер Бурелл-Описание: Отца за убийство разыскивает полиция. Если его посадят, дочь отправят в приют. Не желая терять свободу, отец уходит вместе с дочерью в лес. Первые недели проходят незаметно. Они добывают себе пищу, обустраивают жилище, пытаются выжить. Отец рассказывает дочери о матери, которую она почти не видела. Но скоро лето подходит к концу, и полиция выходит на след.-


MPAA: R - Лицам до 17 лет обязательно присутствие взрослого--Качество: DVDRip
Контейнер: AVI
Видео: XviD, 720x304 (2.35:1), 2029 kbps, 25 fps, 0,371 bpp
Аудио: MP3 / 2.0 / 44 kHz / 192 kbps /-

Media Info

General
Complete name : G:\Faro.2013.L1.DVDRip_1400Mb.avi
Format : AVI
Format/Info : Audio Video Interleave
File size : 1.36 GiB
Duration : 1h 27mn
Overall bit rate : 2 231 Kbps
Writing application : VirtualDubMod 1.5.10.2 (build 2540/release)
Writing library : VirtualDub build 34753/release
Video
ID : 0
Format : MPEG-4 Visual
Format profile : Advanced Simple@L5
Format settings, BVOP : 2
Format settings, QPel : No
Format settings, GMC : No warppoints
Format settings, Matrix : Custom
Codec ID : XVID
Codec ID/Hint : XviD
Duration : 1h 27mn
Bit rate : 2 029 Kbps
Width : 720 pixels
Height : 304 pixels
Display aspect ratio : 2.35:1
Frame rate : 25.000 fps
Color space : YUV
Chroma subsampling : 4:2:0
Bit depth : 8 bits
Scan type : Progressive
Compression mode : Lossy
Bits/(Pixel*Frame) : 0.371
Stream size : 1.24 GiB (91%)
Writing library : XviD 1.2.1 (UTC 2008-12-04)
Audio
ID : 1
Format : MPEG Audio
Format version : Version 1
Format profile : Layer 3
Codec ID : 55
Codec ID/Hint : MP3
Duration : 1h 27mn
Bit rate mode : Constant
Bit rate : 192 Kbps
Channel(s) : 2 channels
Sampling rate : 44.1 KHz
Compression mode : Lossy
Stream size : 120 MiB (9%)
Alignment : Split accross interleaves
Interleave, duration : 40 ms (1.00 video frame)
Interleave, preload duration : 500 ms

Скриншот с названием фильма

Скриншоты

Скачать

Скачать торрент!

Как скачивать? · Что такое торрент? · Рейтинг и ограничения

Сайт не распространяет и не хранит электронные версии произведений, а лишь предоставляет доступ к создаваемому пользователями каталогу ссылок на торрент-файлы, которые содержат только списки хеш-сумм

[Профиль] [ЛС]
Показать сообщения:    
Ответить на тему

Текущее время: Сегодня 05:02

Часовой пояс: GMT + 4



Вы не можете начинать темы
Вы не можете отвечать на сообщения
Вы не можете редактировать свои сообщения
Вы не можете удалять свои сообщения
Вы не можете голосовать в опросах
Вы не можете прикреплять файлы к сообщениям
Вы не можете скачивать файлы