Дом забытых вещей / House of Last Things (Майкл Бартлетт / Michael Bartlett) [2013, США, фэнтези, триллер, DVDRip] MVO [Лицензия]

Ответить на тему
 
Автор Сообщение

user ®

Стаж: 7 лет 7 месяцев

Сообщений: 20008

Пост Пост: #1 от 27-Дек-2013 20:10

[Цитировать]

Дом забытых вещей / House of Last Things
«Подбери ключ. Открой прошлое»
Страна: США
Жанр: фэнтези, триллер
Год выпуска: 2013
Продолжительность: 01:50:27
Перевод: Профессиональный (многоголосый закадровый) [Лицензия]
Cубтитры: нет
Оригинальная аудиодорожка: нет
Режиссер: Майкл Бартлетт / Michael Bartlett--В ролях: Линдси Хоун, Блейк Беррис, RJ Митт, Рэнди Шульман, Дайан Далтон, Мика Нельсон, Мишель Мариана, Морин Литтрелл, Брэндон Смит, Тим Уиткомб, Бродерик Бойд, Сьюзэн Фанк--Описание: Описание: Алан - успешный музыкальный критик. Вместе с женой Сарой они ведут весьма обеспеченную жизнь, но Сара пребывает в депрессии после недавней трагедии и лишь недавно прошла курс лечения. Чтобы поддержать жену и излечить ее больной дух, Алан предпринимает совместную поездку в Италию. На время отсутствия он оставляет приглядывать за домом некую Келли, к которой присоединяется ее младший брат Тим и ее парень Джесси. Довольно быстро трио втягивается в паутину тревожных, необъяснимых событий...--
Качество видео: DVDRip
Формат видео: AVI
Видео: XviD, 640x352 (16:9), 806 kbps, 25 fps.
Аудио: MP3, 48,0 КГц, 128 Кбит/сек, 2 канала.

MediaInfo

General
Complete name : Дом забытых вещей.avi
Format : AVI
Format/Info : Audio Video Interleave
File size : 745 MiB
Duration : 1h 50mn
Overall bit rate : 943 Kbps
Writing application : VirtualDubMod 1.5.10.2 (build 2540/release)
Writing library : VirtualDubMod build 2540/release
Video
ID : 0
Format : MPEG-4 Visual
Format profile : Advanced Simple@L5
Format settings, BVOP : 2
Format settings, QPel : No
Format settings, GMC : No warppoints
Format settings, Matrix : Default (MPEG)
Codec ID : XVID
Codec ID/Hint : XviD
Duration : 1h 50mn
Bit rate : 806 Kbps
Width : 640 pixels
Height : 352 pixels
Display aspect ratio : 16:9
Frame rate : 25.000 fps
Color space : YUV
Chroma subsampling : 4:2:0
Bit depth : 8 bits
Scan type : Progressive
Compression mode : Lossy
Bits/(Pixel*Frame) : 0.143
Stream size : 637 MiB (85%)
Writing library : XviD 1.2.1 (UTC 2008-12-04)
Audio
ID : 1
Format : MPEG Audio
Format version : Version 1
Format profile : Layer 3
Mode : Joint stereo
Mode extension : MS Stereo
Codec ID : 55
Codec ID/Hint : MP3
Duration : 1h 50mn
Bit rate mode : Constant
Bit rate : 128 Kbps
Channel count : 2 channels
Sampling rate : 48.0 KHz
Compression mode : Lossy
Stream size : 101 MiB (14%)
Alignment : Aligned on interleaves
Interleave, duration : 40 ms (1.00 video frame)
Interleave, preload duration : 504 ms

Скриншоты

Скачать

Скачать торрент!

Как скачивать? · Что такое торрент? · Рейтинг и ограничения

Сайт не распространяет и не хранит электронные версии произведений, а лишь предоставляет доступ к создаваемому пользователями каталогу ссылок на торрент-файлы, которые содержат только списки хеш-сумм

[Профиль] [ЛС]
Показать сообщения:    
Ответить на тему

Текущее время: Сегодня 06:00

Часовой пояс: GMT + 4



Вы не можете начинать темы
Вы не можете отвечать на сообщения
Вы не можете редактировать свои сообщения
Вы не можете удалять свои сообщения
Вы не можете голосовать в опросах
Вы не можете прикреплять файлы к сообщениям
Вы не можете скачивать файлы