Книга Джунглей / Jungle Book (Тошиюки Хирума / Toshiyuki Hiruma, Такаши / Takashi) [1995 г., мультфильм, приключения, семейный, VHSRip] DUB

Ответить на тему
 
Автор Сообщение

user ®

Стаж: 13 лет

Сообщений: 15041

Пост Пост: #1 от 27-Дек-2013 02:25

[Цитировать]

Книга Джунглей / Jungle Book- Страна: США, Япония
Год выпуска: 1995
Жанр: мультфильм, приключения, семейный
Продолжительность: 00:49:20
Перевод на серии: Профессиональный (дублированный) (Варус Видео)
Русские субтитры: нет
-Режиссёр: Тошиюки Хирума / Toshiyuki Hiruma, Такаши / Takashi
Роли озвучивали: Тони Эйл, Нэйтан Эсвелл, Чера Бэйли, Кэтлин Барр, Гари Чок, Лиллиэн Карлсон, Йен Джеймс Корлетт, Майкл Донован, Кент Галли, Фил Хэйес
- |-Описание: По мотивам книг Редьярда Киплинга "Книга джунглей".-Доп. информация:
  • Оцифровка с VHS - bora86bora.
-Семпл: скачать-Качество: DVDRip
Формат: AVI
Видео: 688x528 (1.30:1), 25 fps, XviD build 64 ~1761 kbps avg, 0.19 bit/pixel
Аудио: Русский, 48.0 KHz, AC3, 2.0 ch, 192 kbps |Дублированный (Варус Видео)|

MediaInfo

ОбщееПолное имя : ....aviФормат : AVIФормат/Информация : Audio Video InterleaveРазмер файла : 693 МбайтПродолжительность : 49 м.Общий поток : 1963 Кбит/секНазвание фильма : Книга Джунглей / Jungle Book (1995)Режиссёр : bora86boraПрограмма кодирования : VirtualDubMod 1.5.10.3 | www.virtualdub-fr.org || (build 2550/release)Библиотека кодирования : VirtualDubMod build 2550/releaseПравообладатель : RG Multfilmy /
ВидеоИдентификатор : 0Формат : MPEG-4 VisualПрофиль формата : Advanced Simple@L5Параметр BVOP формата : 1Параметр QPel формата : НетПараметр GMC формата : Без точки переходаПараметр матрицы формата : Default (H.263)Идентификатор кодека : XVIDИдентификатор кодека/Подсказка : XviDПродолжительность : 49 м.Битрейт : 1762 Кбит/секШирина : 688 пикселейВысота : 528 пикселейСоотношение сторон : 4:3Частота кадров : 25,000 кадров/секЦветовое пространство : YUVСубдискретизация насыщенности : 4:2:0Битовая глубина : 8 битТип развёртки : ПрогрессивнаяМетод сжатия : С потерямиБит/(Пиксели*Кадры) : 0.194Размер потока : 622 Мбайт (90%)Библиотека кодирования : XviD 64
АудиоИдентификатор : 1Формат : AC-3Формат/Информация : Audio Coding 3Расширение режима : CM (complete main)Параметр Endianness формата : BigИдентификатор кодека : 2000Продолжительность : 49 м.Вид битрейта : ПостоянныйБитрейт : 192 Кбит/секКаналы : 2 каналаРасположение каналов : Front: L RЧастота : 48,0 КГцБитовая глубина : 16 битМетод сжатия : С потерямиРазмер потока : 67,8 Мбайт (10%)Выравнивание : Разделение по промежуткамПродолжительность промежутка : 40 мс. (1,00 видеокадр)Время предзагрузки промежутка : 500 мс.

Скриншоты

Скачать

Скачать торрент! Книга Джунглей / Jungle Book (Тошиюки Хирума / Toshiyuki Hiruma, Такаши / Takashi) [1995 г., мультфильм, приключения, семейный, VHSRip] DUB

Как скачивать? · Что такое торрент? · Рейтинг и ограничения

Сайт не распространяет и не хранит электронные версии произведений, а лишь предоставляет доступ к создаваемому пользователями каталогу ссылок на торрент-файлы, которые содержат только списки хеш-сумм

[Профиль] [ЛС]
Показать сообщения:    
Ответить на тему

Текущее время: Сегодня 00:48

Часовой пояс: GMT + 4



Вы не можете начинать темы
Вы не можете отвечать на сообщения
Вы не можете редактировать свои сообщения
Вы не можете удалять свои сообщения
Вы не можете голосовать в опросах
Вы не можете прикреплять файлы к сообщениям
Вы не можете скачивать файлы