Щелкунчик / The Nutcracker (Тошиюки Хирума Такаши / Toshiyuki Hiruma Takashi) [1995, анимация, семейный, сказка, SATRip] MVO (Варус Видео)

Ответить на тему
 
Автор Сообщение

user ®

Стаж: 13 лет

Сообщений: 15041

Пост Пост: #1 от 26-Дек-2013 20:05

[Цитировать]

Щелкунчик / The Nutcracker
Страна: Япония, США
Жанр: анимация, семейный, сказка
Продолжительность: 00:45:02
Год выпуска: 1995
Перевод: Профессиональный (многоголосый закадровый) Варус Видео
Русские субтитры: нет
Режиссёр: Тошиюки Хирума Такаши / Toshiyuki Hiruma Takashi
Описание: В праздничный Рождественский вечер все семейство Стельбаум занято разворачиванием рождественских подарков. Вместе с другими подарками, семилетняя Мэри получает очень странный подарок от своего обожаемого крестного Дроссельмейера, который совсем не похож на остальные. Это деревянная игрушка - щелкунчик.
На самом деле Щелкунчик - это племянник Дроссельмейера, которого прокляла злая Мадам Мышь. Чтобы развеять колдовские чары, Щелкунчик должен завоевать любовь Мэри и победить ужасного семиголового Мышиного короля. Вместе с батальоном оживших оловянных солдатиков и при помощи храброй Мэри, Щелкунчик выигрывает сражение с коварным Мышиным Королем и разрушает колдовство. Принц Щелкунчик приглашает Мэри в свое волшебное королевство, где они совершают путешествие по Медовой реке, гуляют по Рождественскому лесу и танцуют в Ореховом дворце.

IMDB
Качество: SATRip
Формат: AVI
Видео: Xvid 720x544 (4:3) 25.0fps Bit rate 1849Kbps b/p 0.189
Аудио: MP3 48.0KHz 2ch 192 Kbps
Субтитры: отсутствуют

Подробные технические данные

ОбщееПолное имя : E:\torrent\Щелкунчик.1995.Satrip.aviФормат : AVIФормат/Информация : Audio Video InterleaveРазмер файла : 661 МбайтПродолжительность : 45 м.Общий поток : 2051 Кбит/секБиблиотека кодирования : VirtualDub build 32842/release
ВидеоИдентификатор : 0Формат : MPEG-4 VisualПрофиль формата : Advanced Simple@L5Параметр BVOP формата : 1Параметр QPel формата : НетПараметр GMC формата : Без точки переходаПараметр матрицы формата : Default (H.263)Идентификатор кодека : XVIDИдентификатор кодека/Подсказка : XviDПродолжительность : 45 м.Битрейт : 1849 Кбит/секШирина : 720 пикселейВысота : 544 пикселяСоотношение сторон : 4:3Частота кадров : 25,000 кадров/секЦветовое пространство : YUVСубдискретизация насыщенности : 4:2:0Битовая глубина : 8 битТип развёртки : ПрогрессивнаяМетод сжатия : С потерямиБит/(Пиксели*Кадры) : 0.189Размер потока : 596 Мбайт (90%)Библиотека кодирования : XviD 1.2.1 (UTC 2008-12-04)
АудиоИдентификатор : 1Формат : MPEG AudioВерсия формата : Version 1Профиль формата : Layer 3Режим : Joint stereoИдентификатор кодека : 55Идентификатор кодека/Подсказка : MP3Продолжительность : 45 м.Вид битрейта : ПостоянныйБитрейт : 192 Кбит/секКаналы : 2 каналаЧастота : 48,0 КГцМетод сжатия : С потерямиРазмер потока : 61,8 Мбайт (9%)Выравнивание : Разделение по промежуткамПродолжительность промежутка : 40 мс. (1,00 видеокадр)Время предзагрузки промежутка : 500 мс.

Скриншоты

Скачать

Скачать торрент! Щелкунчик / The Nutcracker (Тошиюки Хирума Такаши / Toshiyuki Hiruma Takashi) [1995, анимация, семейный, сказка, SATRip] MVO (Варус Видео)

Как скачивать? · Что такое торрент? · Рейтинг и ограничения

Сайт не распространяет и не хранит электронные версии произведений, а лишь предоставляет доступ к создаваемому пользователями каталогу ссылок на торрент-файлы, которые содержат только списки хеш-сумм

[Профиль] [ЛС]
Показать сообщения:    
Ответить на тему

Текущее время: Сегодня 10:52

Часовой пояс: GMT + 4



Вы не можете начинать темы
Вы не можете отвечать на сообщения
Вы не можете редактировать свои сообщения
Вы не можете удалять свои сообщения
Вы не можете голосовать в опросах
Вы не можете прикреплять файлы к сообщениям
Вы не можете скачивать файлы