Восьмой шар / 8-Pallo (Аку Лоухимиес / Aku Louhimies) [2013, Финляндия, драма, криминал, HDRip] VO (Хихикающий доктор)

Ответить на тему
 
Автор Сообщение

user ®

Стаж: 8 лет 2 месяца

Сообщений: 20008

Пост Пост: #1 от 26-Дек-2013 08:05

[Цитировать]

Восьмой шар / 8-Pallo
Страна: Финляндия
Жанр: драма, криминал
Год выпуска: 2013
Продолжительность: 01:47:15
Перевод: Одноголосый закадровый Хихикающий доктор
Cубтитры: нет
Режиссер: Аку Лоухимиес / Aku Louhimies
В ролях: Джессика Грабовски, Еэро Ахо, Пиркка-Пекка Петелиус, Микко Леппилампи, Кирси Энберг, Анжелина Иикканен, Манна Янтти, Кари Кетонен, Теа Халифа
Описание: Пике, бывшая шлюха-наркоманка, выходит из тюрьмы. Теперь у нее есть маленькая дочь, и она не может позволить себе совершать ошибки. Но вскоре в ее жизнь возвращается бывший любовник, жестокий уголовник Лалли, принося за собой прошлое, о котором Пике хочет забыть. Страсть между ними разгорается с новой силой. Но Пике твердо решила не возвращаться к прежней жизни...
Жесткий и местами откровенный фильм, собрал много наград на разных фестивалях.
Сэмпл: http://multi-up.com/935702
Качество видео: HDRip
Формат видео: AVI
Видео: XviD, 720x304, 1680 kb/s, 23,979 fps
Аудио: AC3, 192 кбит/с, 16 бит, 2 ch, 48 КГц

MediaInfo

бщее
Полное имя : D:\8-Pallo_2013.HDRip.avi
Формат : AVI
Формат/Информация : Audio Video Interleave
Размер файла : 1,41 Гбайт
Продолжительность : 1 ч. 47 м.
Общий поток : 1882 Кбит/сек
Программа кодирования : VirtualDubModRus 1.5.10.2 (build 2542/release)
Библиотека кодирования : VirtualDubMod build 2542/release
Видео
Идентификатор : 0
Формат : MPEG-4 Visual
Профиль формата : Advanced Simple@L5
Параметр BVOP формата : 2
Параметр QPel формата : Нет
Параметр GMC формата : Без точки перехода
Параметр матрицы формата : Default (MPEG)
Идентификатор кодека : XVID
Идентификатор кодека/Подсказка : XviD
Продолжительность : 1 ч. 47 м.
Битрейт : 1680 Кбит/сек
Ширина : 720 пикселей
Высота : 304 пикселя
Соотношение сторон : 2,35:1
Частота кадров : 23,976 кадра/сек
Цветовое пространство : YUV
Субдискретизация насыщенности : 4:2:0
Битовая глубина : 8 бит
Тип развёртки : Прогрессивная
Метод сжатия : С потерями
Бит/(Пиксели*Кадры) : 0.320
Размер потока : 1,26 Гбайт (89%)
Библиотека кодирования : XviD 1.2.1 (UTC 2008-12-04)
Аудио
Идентификатор : 1
Формат : AC-3
Формат/Информация : Audio Coding 3
Расширение режима : CM (complete main)
Параметр Endianness формата : Big
Идентификатор кодека : 2000
Продолжительность : 1 ч. 47 м.
Вид битрейта : Постоянный
Битрейт : 192 Кбит/сек
Каналы : 2 канала
Расположение каналов : Front: L R
Частота : 48,0 КГц
Битовая глубина : 16 бит
Метод сжатия : С потерями
Размер потока : 147 Мбайт (10%)
Выравнивание : Разделение по промежуткам
Продолжительность промежутка : 42 мс. (1,00 видеокадр)
Время предзагрузки промежутка : 500 мс.

Скриншот c названием фильма

Скриншоты

Скачать

Скачать торрент!

Как скачивать? · Что такое торрент? · Рейтинг и ограничения

Сайт не распространяет и не хранит электронные версии произведений, а лишь предоставляет доступ к создаваемому пользователями каталогу ссылок на торрент-файлы, которые содержат только списки хеш-сумм

[Профиль] [ЛС]
Показать сообщения:    
Ответить на тему

Текущее время: Сегодня 23:06

Часовой пояс: GMT + 4



Вы не можете начинать темы
Вы не можете отвечать на сообщения
Вы не можете редактировать свои сообщения
Вы не можете удалять свои сообщения
Вы не можете голосовать в опросах
Вы не можете прикреплять файлы к сообщениям
Вы не можете скачивать файлы