Благослови меня, Ультима / Bless Me, Ultima (Карл Франклин / Carl Franklin) [2013, США, драма, военный, WEB-DLRip] Dub

Ответить на тему
 
Автор Сообщение

user ®

Стаж: 7 лет 7 месяцев

Сообщений: 20008

Пост Пост: #1 от 26-Дек-2013 08:05

[Цитировать]

Благослови меня, Ультима / Bless Me, Ultima
Страна: США
Жанр: драма, военный
Год выпуска: 2013
Продолжительность: 01:45:54
Перевод: Профессиональный (дублированный)
Cубтитры: нет
Режиссер: Карл Франклин / Carl Franklin
В ролях: Мириам Колон, Люк Ганалон, Бенито Мартинес, Долорес Эредиа, Кастуло Герра, Хоакин Косио, Мануэль Рульфо, Реко Морено, Луис Бордонада, Джозеф А. Гарсиа
Описание: Экранизация одноименной книги Рудольфо Анайи, в которой рассказывается об отношениях семилетнего мальчика Антонио и женщины-целительницы по имени Ультима. События картины разворачиваются в Нью-Мексико в начале 1940-х годов. В то время как весь мир погружен в войну, маленький Антонио сталкивается с неоднозначными событиями, происходящими вокруг него. Его жизнь навсегда резко меняется после внезапного прибытия Ультимы, женщины со сверхъестественными способностями, которая несет миссию добра. В то время как Ультима вдохновляет Антонио интересоваться окружающим его миром с совсем иной точки зрения, мальчик становится свидетелем невозможных на вид событий, которые оказывают глубокое влияние на его понятие богословия и на всю его дальнейшую судьбу.
Доп. информация:
Сэмпл: http://multi-up.com/935706
Качество видео: WEB-DLRip
Формат видео: AVI
Видео: 720x304,23.976 fps,XviD build 50,1770 kbps avg,0.34 bit/pixel
Аудио: 48 kHz,AC3 Dolby Digital,2/0 (L,R) ch,192 kbps

MediaInfo

Общее
Полное имя : D:\Filmi\Blagoslovi.menya.Yljtima.2013.P.WEBDLRip.1.46Gb.avi
Формат : AVI
Формат/Информация : Audio Video Interleave
Размер файла : 1,46 Гбайт
Продолжительность : 1 ч. 45 м.
Общий поток : 1972 Кбит/сек
Программа кодирования : VirtualDubMod 1.5.10.2 (build 2540/release)
Библиотека кодирования : VirtualDubMod build 2540/release
Видео
Идентификатор : 0
Формат : MPEG-4 Visual
Профиль формата : Advanced Simple@L5
Параметр BVOP формата : 2
Параметр QPel формата : Нет
Параметр GMC формата : Без точки перехода
Параметр матрицы формата : Default (MPEG)
Идентификатор кодека : XVID
Идентификатор кодека/Подсказка : XviD
Продолжительность : 1 ч. 45 м.
Битрейт : 1771 Кбит/сек
Ширина : 720 пикселей
Высота : 304 пикселя
Соотношение сторон : 2,35:1
Частота кадров : 23,976 кадра/сек
Цветовое пространство : YUV
Субдискретизация насыщенности : 4:2:0
Битовая глубина : 8 бит
Тип развёртки : Прогрессивная
Бит/(Пиксели*Кадры) : 0.337
Размер потока : 1,31 Гбайт (90%)
Библиотека кодирования : XviD 1.2.1 (UTC 2008-12-04)
Аудио
Идентификатор : 1
Формат : AC-3
Формат/Информация : Audio Coding 3
Расширение режима : CM (complete main)
Параметр Endianness формата : Big
Идентификатор кодека : 2000
Продолжительность : 1 ч. 45 м.
Вид битрейта : Постоянный
Битрейт : 192 Кбит/сек
Каналы : 2 канала
Расположение каналов : Front: L R
Частота : 48,0 КГц
Битовая глубина : 16 бит
Размер потока : 145 Мбайт (10%)
Выравнивание : Разделение по промежуткам
Продолжительность промежутка : 42 мс. (1,00 видеокадр)
Время предзагрузки промежутка : 500 мс.

Скриншот c названием фильма

Скриншоты

Скачать

Скачать торрент!

Как скачивать? · Что такое торрент? · Рейтинг и ограничения

Сайт не распространяет и не хранит электронные версии произведений, а лишь предоставляет доступ к создаваемому пользователями каталогу ссылок на торрент-файлы, которые содержат только списки хеш-сумм

[Профиль] [ЛС]
Показать сообщения:    
Ответить на тему

Текущее время: Сегодня 05:02

Часовой пояс: GMT + 4



Вы не можете начинать темы
Вы не можете отвечать на сообщения
Вы не можете редактировать свои сообщения
Вы не можете удалять свои сообщения
Вы не можете голосовать в опросах
Вы не можете прикреплять файлы к сообщениям
Вы не можете скачивать файлы