Шерлок Холмс: Игра теней / Sherlock Holmes: A Game of Shadows (Гай Ричи / Guy Ritchie) [2011, США, боевик, триллер, криминал, детектив, приключения, BDRip 1080p] Dub + AVO (Сербин) + AVO (Гаврилов) + Sub Rus, Eng + Original Eng

Ответить на тему
 
Автор Сообщение

user ®

Стаж: 7 лет 7 месяцев

Сообщений: 20008

Пост Пост: #1 от 26-Дек-2013 04:55

[Цитировать]

Шерлок Холмс: Игра теней / Sherlock Holmes: A Game of Shadows Страна: США
Студия: Warner Bros. Pictures, Village Roadshow Pictures
Жанр: боевик, триллер, криминал, детектив, приключения
Год выпуска: 2011
Продолжительность: 02:08:44
Перевод 1: Профессиональный (дублированный) Blu-ray
Перевод 2: Авторский (одноголосый закадровый)Сербин
Перевод 3: Авторский (одноголосый закадровый)Гаврилов
Cубтитры: русские(forced,full,voronine),украинские(forced,full),английские(full,SDH)
Оригинальная аудиодорожка: английский
Режиссер: Гай Ричи / Guy Ritchie
В ролях: Роберт Дауни мл., Джуд Лоу, Нуми Рапас, Рэйчел МакАдамс, Джаред Харрис, Стивен Фрай, Пол Андерсон, Келли Райлли, Джеральдин Джеймс, Эдди Марсан
Описание: Когда крон-принц Австрии был найден мертвым, все улики, по мнению инспектора Лестрейда, указывали на самоубийство. Но Шерлок Холмс приходит к выводу, что наследник престола был убит, и это убийство — всего лишь маленький кусочек мозаики, созданной профессором Мориарти, на самом деле гораздо более грандиозной и зловещей. Расследование оборачивается еще большей опасностью и ведет Холмса, Ватсона и их невольную союзницу цыганку Сим по всей Европе, из Англии во Францию, затем в Германию и, наконец, в Швейцарию. Но коварный Мориарти всегда на шаг впереди, он плетет паутину из смерти и разрушений, являющихся частью его великого плана, успех которого изменит ход истории.

Тип релиза: BDRip 1080p[CtrlHD]
Контейнер: MKV
Видео: AVC, 1920x800, 12300Kbps, 23.976 fps
Аудио 1: Russian: 48 kHz, AC3, 3/2 (L,C,R,l,r) + LFE ch, ~448.00 kbps avg |Blu-ray|
Аудио 2: Ukrainian: 48 kHz, AC3, 3/2 (L,C,R,l,r) + LFE ch, ~448.00 kbps avg |Blu-ray|
Аудио 3: Russian: 48 kHz, DTS, 3/2 (L,C,R,l,r) + LFE ch, ~1536 kbps avg |Сербин|
Аудио 4: Russian: 48 kHz, DTS, 3/2 (L,C,R,l,r) + LFE ch, ~1536kbps avg |Гаврилов|
Аудио 5: English: 48 kHz, DTS, 3/2 (L,C,R,l,r) + LFE ch, ~1536 kbps avg |Original|
Чаптеры:есть

x264 log

x264 [info]: frame I:1638 Avg QP:16.30 size:184677
x264 [info]: frame P:39999 Avg QP:17.60 size:102254
x264 [info]: frame B:143572 Avg QP:19.16 size: 54204

MediaInfo

General
Unique ID : 187770517332333837208331492459484673455 (0x8D4349446CF6CDAF8DEFAB7A24ADF5AF)
Complete name : D:\Sherlock.Holmes.A.Game.Of.Shadows.2011.1080p.BluRay.DTS.x264-Talian-.mkv
Format : Matroska
Format version : Version 2
File size : 16.2 GiB
Duration : 2h 8mn
Overall bit rate : 18.0 Mbps
Movie name : -Talian-
Encoded date : UTC 2013-12-23 19:12:15
Writing application : mkvmerge v5.7.0 ('The Whirlwind') built on Jul 8 2012 20:08:51
Writing library : libebml v1.2.3 + libmatroska v1.3.0
Video
ID : 1
Format : AVC
Format/Info : Advanced Video Codec
Format profile : High@L4.1
Format settings, CABAC : Yes
Format settings, ReFrames : 5 frames
Codec ID : V_MPEG4/ISO/AVC
Duration : 2h 8mn
Bit rate : 12.3 Mbps
Width : 1 920 pixels
Height : 800 pixels
Display aspect ratio : 2.40:1
Frame rate : 23.976 fps
Color space : YUV
Chroma subsampling : 4:2:0
Bit depth : 8 bits
Scan type : Progressive
Bits/(Pixel*Frame) : 0.333
Stream size : 11.0 GiB (68%)
Title : CtrlHD
Writing library : x264 core 122 r2184 5c85e0a
Encoding settings : cabac=1 / ref=5 / deblock=1:-3:-3 / analyse=0x3:0x113 / me=umh / subme=11 / psy=1 / psy_rd=1.13:0.00 / mixed_ref=1 / me_range=16 / chroma_me=1 / trellis=2 / 8x8dct=1 / cqm=0 / deadzone=21,11 / fast_pskip=0 / chroma_qp_offset=-2 / threads=6 / sliced_threads=0 / nr=0 / decimate=0 / interlaced=0 / bluray_compat=0 / constrained_intra=0 / bframes=8 / b_pyramid=2 / b_adapt=2 / b_bias=0 / direct=3 / weightb=1 / open_gop=0 / weightp=2 / keyint=250 / keyint_min=23 / scenecut=40 / intra_refresh=0 / rc=crf / mbtree=0 / crf=18.0 / qcomp=0.80 / qpmin=0 / qpmax=69 / qpstep=4 / ip_ratio=1.30 / pb_ratio=1.20 / aq=1:0.60
Language : English
Default : Yes
Forced : No
Audio #1
ID : 2
Format : AC-3
Format/Info : Audio Coding 3
Mode extension : CM (complete main)
Format settings, Endianness : Big
Codec ID : A_AC3
Duration : 2h 8mn
Bit rate mode : Constant
Bit rate : 448 Kbps
Channel(s) : 6 channels
Channel positions : Front: L C R, Side: L R, LFE
Sampling rate : 48.0 KHz
Bit depth : 16 bits
Compression mode : Lossy
Stream size : 413 MiB (2%)
Title : DUB- Blu-ray CEE
Language : Russian
Default : Yes
Forced : No
Audio #2
ID : 3
Format : AC-3
Format/Info : Audio Coding 3
Mode extension : CM (complete main)
Format settings, Endianness : Big
Codec ID : A_AC3
Duration : 2h 8mn
Bit rate mode : Constant
Bit rate : 448 Kbps
Channel(s) : 6 channels
Channel positions : Front: L C R, Side: L R, LFE
Sampling rate : 48.0 KHz
Bit depth : 16 bits
Compression mode : Lossy
Stream size : 413 MiB (2%)
Title : DUB- Blu-ray CEE
Language : Ukrainian
Default : No
Forced : No
Audio #3
ID : 4
Format : DTS
Format/Info : Digital Theater Systems
Codec ID : A_DTS
Duration : 2h 8mn
Bit rate mode : Constant
Bit rate : 1 510 Kbps
Channel(s) : 6 channels
Channel positions : Front: L C R, Side: L R, LFE
Sampling rate : 48.0 KHz
Bit depth : 24 bits
Compression mode : Lossy
Stream size : 1.36 GiB (8%)
Title : AVO- Ю.Сербин
Language : Russian
Default : No
Forced : No
Audio #4
ID : 5
Format : DTS
Format/Info : Digital Theater Systems
Codec ID : A_DTS
Duration : 2h 8mn
Bit rate mode : Constant
Bit rate : 1 510 Kbps
Channel(s) : 6 channels
Channel positions : Front: L C R, Side: L R, LFE
Sampling rate : 48.0 KHz
Bit depth : 24 bits
Compression mode : Lossy
Stream size : 1.36 GiB (8%)
Title : AVO- А.Гаврилов
Language : Russian
Default : No
Forced : No
Audio #5
ID : 6
Format : DTS
Format/Info : Digital Theater Systems
Codec ID : A_DTS
Duration : 2h 8mn
Bit rate mode : Constant
Bit rate : 1 510 Kbps
Channel(s) : 6 channels
Channel positions : Front: L C R, Side: L R, LFE
Sampling rate : 48.0 KHz
Bit depth : 24 bits
Compression mode : Lossy
Stream size : 1.36 GiB (8%)
Title : Original
Language : English
Default : No
Forced : No
Text #1
ID : 7
Format : UTF-8
Codec ID : S_TEXT/UTF8
Codec ID/Info : UTF-8 Plain Text
Title : Sub-forced
Language : Russian
Default : Yes
Forced : No
Text #2
ID : 8
Format : UTF-8
Codec ID : S_TEXT/UTF8
Codec ID/Info : UTF-8 Plain Text
Title : Sub-Blu-ray CEE
Language : Russian
Default : No
Forced : No
Text #3
ID : 9
Format : UTF-8
Codec ID : S_TEXT/UTF8
Codec ID/Info : UTF-8 Plain Text
Title : Sub-voronine
Language : Russian
Default : No
Forced : No
Text #4
ID : 10
Format : UTF-8
Codec ID : S_TEXT/UTF8
Codec ID/Info : UTF-8 Plain Text
Title : Sub-forced
Language : Ukrainian
Default : No
Forced : No
Text #5
ID : 11
Format : UTF-8
Codec ID : S_TEXT/UTF8
Codec ID/Info : UTF-8 Plain Text
Title : Sub-full
Language : Ukrainian
Default : No
Forced : No
Text #6
ID : 12
Format : UTF-8
Codec ID : S_TEXT/UTF8
Codec ID/Info : UTF-8 Plain Text
Title : Sub-full
Language : English
Default : No
Forced : No
Text #7
ID : 13
Format : UTF-8
Codec ID : S_TEXT/UTF8
Codec ID/Info : UTF-8 Plain Text
Title : Sub-SDH
Language : English
Default : No
Forced : No
Menu
00:00:00.000 : en:00:00:00.000
00:09:18.266 : en:00:09:18.266
00:19:37.635 : en:00:19:37.635
00:30:46.845 : en:00:30:46.845
00:40:13.703 : en:00:40:13.703
00:50:29.026 : en:00:50:29.026
00:59:45.457 : en:00:59:45.457
01:09:20.823 : en:01:09:20.823
01:18:58.275 : en:01:18:58.275
01:30:08.695 : en:01:30:08.695
01:39:08.734 : en:01:39:08.734
01:49:50.375 : en:01:49:50.375
02:00:24.717 : en:02:00:24.717

Скриншоты

Source vs Encode



Скачать

Скачать торрент!

Как скачивать? · Что такое торрент? · Рейтинг и ограничения

Сайт не распространяет и не хранит электронные версии произведений, а лишь предоставляет доступ к создаваемому пользователями каталогу ссылок на торрент-файлы, которые содержат только списки хеш-сумм

[Профиль] [ЛС]
Показать сообщения:    
Ответить на тему

Текущее время: Сегодня 23:52

Часовой пояс: GMT + 4



Вы не можете начинать темы
Вы не можете отвечать на сообщения
Вы не можете редактировать свои сообщения
Вы не можете удалять свои сообщения
Вы не можете голосовать в опросах
Вы не можете прикреплять файлы к сообщениям
Вы не можете скачивать файлы