Восьмой шар / 8-Pallo (Аку Лоухимиес / Aku Louhimies) [2013, Финляндия, драма, криминал, HDRip] VO (Хихикающий доктор)

Ответить на тему
 
Автор Сообщение

user ®

Стаж: 7 лет 7 месяцев

Сообщений: 20008

Пост Пост: #1 от 26-Дек-2013 04:55

[Цитировать]

Восьмой шар / 8-Pallo
Страна: Финляндия
Жанр: драма, криминал
Год выпуска: 2013
Продолжительность: 01:47:15
Перевод: Одноголосый закадровый Хихикающий доктор
Cубтитры: нет
Режиссер: Аку Лоухимиес / Aku Louhimies
В ролях: Джессика Грабовски, Еэро Ахо, Пиркка-Пекка Петелиус, Микко Леппилампи, Кирси Энберг, Анжелина Иикканен, Манна Янтти, Кари Кетонен, Теа Халифа
Описание: Пике, бывшая шлюха-наркоманка, выходит из тюрьмы. Теперь у нее есть маленькая дочь, и она не может позволить себе совершать ошибки. Но вскоре в ее жизнь возвращается бывший любовник, жестокий уголовник Лалли, принося за собой прошлое, о котором Пике хочет забыть. Страсть между ними разгорается с новой силой. Но Пике твердо решила не возвращаться к прежней жизни...
Жесткий и местами откровенный фильм, собрал много наград на разных фестивалях.
Сэмпл: http://multi-up.com/935679
Качество видео: HDRip
Формат видео: AVI
Видео: XviD, 640x272, 777 kb/s,23,976 fps
Аудио: mp3, 48.0 KHz, 2 ch, 128 kbps

MediaInfo

Общее
Полное имя : D:\8.Pallo_2013.avi
Формат : AVI
Формат/Информация : Audio Video Interleave
Размер файла : 751 Мбайт
Продолжительность : 1 ч. 47 м.
Общий поток : 978 Кбит/сек
Программа кодирования : VirtualDubMod 1.5.10.3 (build 2550/release)
Библиотека кодирования : VirtualDubMod build 2550/release
Видео
Идентификатор : 0
Формат : MPEG-4 Visual
Профиль формата : Advanced Simple@L5
Параметр BVOP формата : 2
Параметр QPel формата : Нет
Параметр GMC формата : Без точки перехода
Параметр матрицы формата : Default (MPEG)
Идентификатор кодека : XVID
Идентификатор кодека/Подсказка : XviD
Продолжительность : 1 ч. 47 м.
Битрейт : 777 Кбит/сек
Ширина : 640 пикселей
Высота : 272 пикселя
Соотношение сторон : 2,35:1
Частота кадров : 23,976 кадра/сек
Цветовое пространство : YUV
Субдискретизация насыщенности : 4:2:0
Битовая глубина : 8 бит
Тип развёртки : Прогрессивная
Метод сжатия : С потерями
Бит/(Пиксели*Кадры) : 0.186
Размер потока : 596 Мбайт (79%)
Библиотека кодирования : XviD 1.2.1 (UTC 2008-12-04)
Аудио
Идентификатор : 1
Формат : MPEG Audio
Версия формата : Version 1
Профиль формата : Layer 3
Идентификатор кодека : 55
Идентификатор кодека/Подсказка : MP3
Продолжительность : 1 ч. 47 м.
Вид битрейта : Постоянный
Битрейт : 192 Кбит/сек
Каналы : 2 канала
Частота : 44,1 КГц
Метод сжатия : С потерями
Размер потока : 147 Мбайт (20%)
Выравнивание : Разделение по промежуткам
Продолжительность промежутка : 42 мс. (1,00 видеокадр)
Время предзагрузки промежутка : 500 мс.

Скриншот c названием фильма

Скриншоты

Скачать

Скачать торрент!

Как скачивать? · Что такое торрент? · Рейтинг и ограничения

Сайт не распространяет и не хранит электронные версии произведений, а лишь предоставляет доступ к создаваемому пользователями каталогу ссылок на торрент-файлы, которые содержат только списки хеш-сумм

[Профиль] [ЛС]
Показать сообщения:    
Ответить на тему

Текущее время: Сегодня 17:49

Часовой пояс: GMT + 4



Вы не можете начинать темы
Вы не можете отвечать на сообщения
Вы не можете редактировать свои сообщения
Вы не можете удалять свои сообщения
Вы не можете голосовать в опросах
Вы не можете прикреплять файлы к сообщениям
Вы не можете скачивать файлы