Саймон Бирч / Simon Birch (Марк Стивен Джонсон / Mark Steven Johnson) [1998, США, драма, комедия, WEB-DL 720p] DVO (Видеосервис) + DVO (TV1000) + Sub Eng

Ответить на тему
 
Автор Сообщение

user ®

Стаж: 7 лет 7 месяцев

Сообщений: 20008

Пост Пост: #1 от 25-Дек-2013 23:25

[Цитировать]

--Саймон Бирч / Simon Birch--
Страна: США
Студия: Caravan Pictures, Hollywood Pictures
Жанр: драма, комедия
Год выпуска: 1998
Продолжительность: 01:54:01-Перевод 1: Профессиональный (двухголосый закадровый) Видеосервис
Перевод 2: Профессиональный (двухголосый закадровый) TV1000
Cубтитры: английские
Режиссер: Марк Стивен Джонсон / Mark Steven Johnson-В ролях: Йен Майкл Смит, Джозеф Маццелло, Эшли Джадд, Оливер Платт, Дэвид Стрэтэйрн, Дэна Айви, Беатрис Уинд, Джен Хукс, Сисилли Кэрролл, Самела Кэй-Описание: Саймон Бирч — карапуз с большими амбициями. Когда мальчик родился, врачи заявили, что он не протянет и дня. Но Саймон прожил этот день, затем месяц, потом — годы. Самый маленький житель в своем городе, он уверен, что рожден для великих дел. Саймон убежден: скоро он совершит подвиг, правда, еще не знает, какой. Пока же будущая знаменитость терроризирует своего учителя и местного священника, убеждая несчастных взрослых в собственной уникальности. А между тем, настоящий подвиг уже ожидает своего героя, и вовсе не там, где его ищет малыш…-Тип релиза: WEB-DL 720p
Контейнер: MKV
Видео: 1280x688 at 23.976 fps, MPEG-4 AVC, ~4094 kbps avg
Аудио 1: Russian: 48 kHz, AC3, 3/2 (L,C,R,l,r) + LFE ch, ~384.00 kbps avg |Двухголосый закадровый, Видеосервис|
Аудио 2: Russian: 48 kHz, AC3, 2/0 (L,R) ch, ~192.00 kbps avg |Двухголосый закадровый, TV1000|
Аудио 3: English: 48 kHz, AC3, 3/2 (L,C,R,l,r) + LFE ch, ~384.00 kbps avg
Формат субтитров: softsub (SRT)- by sergey_n
Сохранены оригинальные чаптеры.
Исходная WEB-DL, а так же "чистые голоса" Видеосервиса приобретены за средства Васька64.
За работу над звуковыми дорогами большое спасибо Прагматик.-Сэмпл / ImDB / Кинопоиск-

Знаете ли Вы, что...

▣ Фильм снят по мотивам романа Джона Ирвинга «Молитва об Оуэне Мини» (A Prayer for Owen Meany, 1989).
▣ Американский писатель Джон Ирвинг полагал, что его роман «Молитва об Оуэне Мини» не может быть успешно претворён в фильм и продал права на экранизацию под условием, что его название будет изменено. Альтернативный вариант «Саймон Бирч» был предложен самим автором.
▣ Роль Ребекки Вентворт могла достаться Сандре Буллок.

MediaInfo

Общее
Уникальный идентификатор                 : 241759194419288875157497636298509569355 (0xB5E1208F4819E1ABB10758509D34CD4B)
Полное имя                               : Simon.Birch.1998.720p.WEB-DL.2xRus.Eng.HDCLUB.mkv
Формат                                   : Matroska
Версия формата                           : Version 2
Размер файла                             : 4,03 Гбайт
Продолжительность                        : 1 ч. 54 м.
Общий поток                              : 5056 Кбит/сек
Название фильма                          : Simon Birch (1998) - Release for HDCLUB
Дата кодирования                         : UTC 2013-12-24 21:40:40
Программа кодирования                    : mkvmerge v3.4.0 ('Rapunzel') built on May 15 2010 09:38:20
Библиотека кодирования                   : libebml v0.8.0 + libmatroska v0.9.0
Видео
Идентификатор                            : 1
Формат                                   : AVC
Формат/Информация                        : Advanced Video Codec
Профиль формата                          : High@L3.1
Параметр CABAC формата                   : Нет
Параметр ReFrames формата                : 2 кадра
Идентификатор кодека                     : V_MPEG4/ISO/AVC
Продолжительность                        : 1 ч. 54 м.
Битрейт                                  : 3995 Кбит/сек
Ширина                                   : 1280 пикселей
Высота                                   : 688 пикселей
Соотношение сторон                       : 1,85:1
Режим частоты кадров                     : Постоянный
Частота кадров                           : 23,976 кадра/сек
Цветовое пространство                    : YUV
Субдискретизация насыщенности            : 4:2:0
Битовая глубина                          : 8 бит
Тип развёртки                            : Прогрессивная
Бит/(Пиксели*Кадры)                      : 0.189
Размер потока                            : 3,18 Гбайт (79%)
Заголовок                                : Simon Birch (1998) - Release for HDCLUB
Язык                                     : English
Default                                  : Да
Forced                                   : Нет
Основные цвета                           : BT.709
Характеристики трансфера                 : BT.709
Коэффициенты матрицы                     : BT.709
Аудио #1
Идентификатор                            : 2
Формат                                   : AC-3
Формат/Информация                        : Audio Coding 3
Расширение режима                        : CM (complete main)
Параметр Endianness формата              : Big
Идентификатор кодека                     : A_AC3
Продолжительность                        : 1 ч. 54 м.
Вид битрейта                             : Постоянный
Битрейт                                  : 384 Кбит/сек
Каналы                                   : 6 каналов
Расположение каналов                     : Front: L C R, Side: L R, LFE
Частота                                  : 48,0 КГц
Битовая глубина                          : 16 бит
Метод сжатия                             : С потерями
Размер потока                            : 313 Мбайт (8%)
Заголовок                                : AC3 5.1 @ 384 kbps - DVO, Videoservice
Язык                                     : Russian
Default                                  : Да
Forced                                   : Нет
Аудио #2
Идентификатор                            : 3
Формат                                   : AC-3
Формат/Информация                        : Audio Coding 3
Расширение режима                        : CM (complete main)
Параметр Endianness формата              : Big
Идентификатор кодека                     : A_AC3
Продолжительность                        : 1 ч. 54 м.
Вид битрейта                             : Постоянный
Битрейт                                  : 192 Кбит/сек
Каналы                                   : 2 канала
Расположение каналов                     : Front: L R
Частота                                  : 48,0 КГц
Битовая глубина                          : 16 бит
Метод сжатия                             : С потерями
Размер потока                            : 157 Мбайт (4%)
Заголовок                                : AC3 2.0 @ 192 kbps - MVO, TV1000
Язык                                     : Russian
Default                                  : Нет
Forced                                   : Нет
Аудио #3
Идентификатор                            : 4
Формат                                   : AC-3
Формат/Информация                        : Audio Coding 3
Расширение режима                        : CM (complete main)
Параметр Endianness формата              : Big
Идентификатор кодека                     : A_AC3
Продолжительность                        : 1 ч. 54 м.
Вид битрейта                             : Постоянный
Битрейт                                  : 384 Кбит/сек
Каналы                                   : 6 каналов
Расположение каналов                     : Front: L C R, Side: L R, LFE
Частота                                  : 48,0 КГц
Битовая глубина                          : 16 бит
Метод сжатия                             : С потерями
Размер потока                            : 313 Мбайт (8%)
Заголовок                                : AC3 5.1 @ 384 kbps
Язык                                     : English
Default                                  : Нет
Forced                                   : Нет
Текст
Идентификатор                            : 5
Формат                                   : UTF-8
Идентификатор кодека                     : S_TEXT/UTF8
Идентификатор кодека/Информация          : UTF-8 Plain Text
Язык                                     : English
Default                                  : Нет
Forced                                   : Нет
Меню
00:00:00.000                             : en:Program Start
00:01:18.000                             : en:Opening Credits
00:04:24.000                             : en:Miss Leavey
00:08:56.000                             : en:A Small Miracle
00:12:48.000                             : en:Miss Wenteworth
00:15:44.000                             : en:Marjorie
00:22:49.000                             : en:"You Open It"
00:29:27.000                             : en:Coffee And Doughnuts
00:35:35.000                             : en:Swing Away
00:41:52.000                             : en:A Gift In Return
00:45:54.000                             : en:Life Goes On
00:48:08.000                             : en:Running Out Of Time
00:50:10.000                             : en:Is It Mr. Baker?
01:00:52.000                             : en:A Friend In Need
01:05:06.000                             : en:Volunteers
01:07:53.000                             : en:Reverend Russell's Rules
01:13:54.000                             : en:Simon's Impulse
01:16:57.000                             : en:Punishment
01:27:51.000                             : en:The Secret Revealed
01:33:01.000                             : en:On The Way Home
01:35:35.000                             : en:Time For A Hero
01:43:47.000                             : en:200 Mississippi
01:47:51.000                             : en:Joe's Real Father
01:50:25.000                             : en:End Credits

Скриншоты


Скачать

Скачать торрент!

Как скачивать? · Что такое торрент? · Рейтинг и ограничения

Сайт не распространяет и не хранит электронные версии произведений, а лишь предоставляет доступ к создаваемому пользователями каталогу ссылок на торрент-файлы, которые содержат только списки хеш-сумм

[Профиль] [ЛС]
Показать сообщения:    
Ответить на тему

Текущее время: Сегодня 16:16

Часовой пояс: GMT + 4



Вы не можете начинать темы
Вы не можете отвечать на сообщения
Вы не можете редактировать свои сообщения
Вы не можете удалять свои сообщения
Вы не можете голосовать в опросах
Вы не можете прикреплять файлы к сообщениям
Вы не можете скачивать файлы