Непобедимый / Unbeatable / MMA / Ji zhan (Данте Лам / Dante Lam) [2013, Гонконг, боевик, драма, спорт, DVDRip] Sub rus

Ответить на тему
 
Автор Сообщение

user ®

Стаж: 11 лет

Сообщений: 15151

Пост Пост: #1 от 25-Дек-2013 20:15

[Цитировать]

Непобедимый / Unbeatable / MMA / Ji zhan
Страна: Гонконг
Жанр: боевик, драма, спорт
Год выпуска: 2013
Продолжительность: 01:56:00
Перевод: Субтитры
Доп.инфо о переводе: Перевод – julz_nsk
Cубтитры: русские, отключаемые, srt
Оригинальная аудиодорожка: китайский
Режиссер: Данте Лам / Dante Lam
В ролях:
Ник Чун / Nick Cheung в роли Чин Фая
Эдди Пэн / Eddie Peng в роли Линь Сыци
Мэй Тин / Mei Ting в роли Гвен
Энди Он / Andy On в роли Ли Цзытяня
Описание: Чин Фай, в прошлом двукратный чемпион по смешанным единоборствам, сбегает из Гонконга в Макао от ростовщиков.
Неожиданно встречает Линь Сыци, который полон решимости выиграть чемпионат по смешанным боевым искусствам.
Фай становится наставником Сыци и заново открывает для себя страсть не только к боям, но и к жизни.

IMDB: 7.4/10 (688 votes)
9 номинаций
http://multi-up.com/935475
Качество видео: DVDRip
Формат видео: AVI
Видео кодек: XviD
Аудио кодек: AC-3
Видео: 720х304, MPEG-4 AVC, 23.976 fps, ~ 1 606 kbps avg, 0.306 bit/pixel
Аудио: 48 kHz, 2 ch, ~ 192 kbps (Cantonese)
Формат субтитров: softsub (SRT)

MediaInfo

General
Complete name : E:\Unbeatable\Unbeatable.avi
Format : AVI
Format/Info : Audio Video Interleave
File size : 1.46 GiB
Duration : 1h 56mn
Overall bit rate : 1 807 Kbps
Writing application : VirtualDubMod 1.5.10.3 | www.virtualdub-fr.org || (build 2550/release)
Writing library : VirtualDubMod build 2550/release
Video #0
ID : 0
Format : MPEG-4 Visual
Format profile : AdvancedSimple@L5
Format settings, BVOP : Yes
Format settings, QPel : No
Format settings, GMC : No warppoints
Format settings, Matrix : Default (MPEG)
Codec ID : XVID
Codec ID/Hint : XviD
Duration : 1h 56mn
Bit rate : 1 606 Kbps
Width : 720 pixels
Height : 304 pixels
Display aspect ratio : 2.35:1
Frame rate : 23.976 fps
Resolution : 24 bits
Colorimetry : 4:2:0
Scan type : Progressive
Bits/(Pixel*Frame) : 0.306
Stream size : 1.30 GiB (89%)
Writing library : XviD 1.2.1 (UTC 2008-12-04)
Audio #1
ID : 1
Format : AC-3
Format/Info : Audio Coding 3
Codec ID : 2000
Duration : 1h 56mn
Bit rate mode : Constant
Bit rate : 192 Kbps
Channel(s) : 2 channels
Channel positions : L R
Sampling rate : 48.0 KHz
Stream size : 159 MiB (11%)
Alignment : Split accross interleaves
Interleave, duration : 42 ms (1.00 video frame)
Interleave, preload duration : 500 ms

Скриншот с названием фильма

Скриншоты


Субтитры

1
00:00:43,225 --> 00:00:45,254
Юньнань
2
00:01:42,102 --> 00:01:44,510
Пекин
3
00:01:53,913 --> 00:01:55,815
Господин Чэнь.
4
00:01:56,316 --> 00:02:00,219
Еще один год прошел.
5
00:02:00,220 --> 00:02:02,128
Неплохо выглядишь!
6
00:02:04,624 --> 00:02:07,126
Мы всегда приходим первыми
на встречи выпускников.
7
00:02:07,127 --> 00:02:10,229
А в прошлом году где ты был?
8
00:02:10,230 --> 00:02:12,731
Пришлось поскитаться.
9
00:02:12,732 --> 00:02:15,200
Дайте им «красные конверты»...
10
00:02:15,201 --> 00:02:16,401
Что за повод?
11
00:02:16,402 --> 00:02:18,604
Отец умер в прошлом месяце.
12
00:02:18,605 --> 00:02:20,606
Тогда почему празднуешь?
13
00:02:20,607 --> 00:02:22,209
Интересно все сложилось.
14
00:02:23,610 --> 00:02:26,812
Теперь у меня 1,75 миллиарда.
15
00:02:26,813 --> 00:02:29,314
Сегодня тебе не нужно
ни за что платить...
16
00:02:29,315 --> 00:02:32,117
Все принадлежит мне.
17
00:02:32,118 --> 00:02:33,619
Кто такой Чэнь?
18
00:02:33,620 --> 00:02:36,722
Мажор, сын
богатеньких родителей.
19
00:02:36,723 --> 00:02:41,226
Значит, он - цель номер один.
Правильно?
20
00:02:41,227 --> 00:02:42,628
Точно.
21
00:02:42,629 --> 00:02:44,630
Не этот.
22
00:02:45,231 --> 00:02:47,799
Слишком ни на кого не похож.
23
00:02:47,800 --> 00:02:50,602
Он заметнее своего компаньона,
но совершенно бесполезен.
24
00:02:50,603 --> 00:02:52,704
Абсолютно бесполезен.
25
00:02:52,705 --> 00:02:56,108
Его отец чудовищно богат,
26
00:02:56,109 --> 00:03:00,412
но он не тратит его деньги.
Считай, что он нищий.
27
00:03:00,413 --> 00:03:03,315
У этого вина очень тонкий вкус.
28
00:03:03,316 --> 00:03:08,020
Это же французское
"Бордо", так ведь?
29
00:03:08,021 --> 00:03:11,023
Стоит не менее
20 000 юаней за бутылку.
30
00:03:11,024 --> 00:03:12,424
Впечатляет.
Скачать

Скачать торрент! Непобедимый / Unbeatable / MMA / Ji zhan (Данте Лам / Dante Lam) [2013, Гонконг, боевик, драма, спорт, DVDRip] Sub rus

Как скачивать? · Что такое торрент? · Рейтинг и ограничения

Сайт не распространяет и не хранит электронные версии произведений, а лишь предоставляет доступ к создаваемому пользователями каталогу ссылок на торрент-файлы, которые содержат только списки хеш-сумм

[Профиль] [ЛС]
Показать сообщения:    
Ответить на тему

Текущее время: Сегодня 10:52

Часовой пояс: GMT + 4



Вы не можете начинать темы
Вы не можете отвечать на сообщения
Вы не можете редактировать свои сообщения
Вы не можете удалять свои сообщения
Вы не можете голосовать в опросах
Вы не можете прикреплять файлы к сообщениям
Вы не можете скачивать файлы