Стервятник / Sep (Еугениуш Корин / Eugeniusz Korin) [2013, Польша, Триллер, HDRip] VO (Хихикающий доктор) + Original Pol

Ответить на тему
 
Автор Сообщение

user ®

Стаж: 7 лет 7 месяцев

Сообщений: 20008

Пост Пост: #1 от 25-Дек-2013 13:55

[Цитировать]

Стервятник / Sep
Страна: Польша
Жанр: Триллер
Год выпуска: 2013
Продолжительность: 02:07:10
Перевод: Одноголосый закадровый [Хихикающий доктор]
Cубтитры: нет
Оригинальная аудиодорожка: польский
Режиссер: Еугениуш Корин / Eugeniusz Korin
В ролях: Михал Жебровский, Даниэль Ольбрыхский, Анна Пржыбыльска, Анджей Северин, Павел Малашинский, Петр Фрончевский, Мирослав Бака, Веслав Кичи, Пжемыслав Садовски, Конрад Маршалек
Описание: В центре Европы бесследно начинают исчезать люди. Расследование попадает в руки Стервятника — полицейского, который, кажется, лишён каких-либо чувств. Твердый, неподкупный, без обязательств и услуг в отношении других. До момента, когда знакомится с Наташей — женщиной, непохожей на тех, которых встречал до сих пор.
Стервятник начнет опасную игру с противником, опережающим его всего на один шаг. Он откроет мир, в котором люди ведут двойную жизнь. Первый раз логическое мышление загонит его в безвыходную ловушку. Неожиданно из ловца он превратится в дичь. Балансируя на грани страсти и рассудка, мира логики и хитрой манипуляции, будет вынужден ответить на вопрос: есть ли что более ценное, чем жизнь?
Сэмпл: http://multi-up.com/935481
Качество видео: HDRip
Формат видео: AVI
Видео: 720x304 (2.37:1), 25 fps, XviD build 50, 1145 kbps avg, 0.21 bit/pixel
Аудио: 48 kHz, AC3 Dolby Digital, 2/0 (L,R) ch, 192 kbps ( Русский)
Аудио 2: 48 kHz, AC3 Dolby Digital, 2/0 (L,R) ch, 192 kbps ( Польский)

MediaInfo

Stervjatnik.avi
Format : AVI
Format/Info : Audio Video Interleave
File size : 1.37 GiB
Duration : 2h 7mn
Overall bit rate : 1 545 Kbps
Writing application : VirtualDubMod 1.5.10.3 | www.virtualdub-fr.org || (build 2550/release)
Writing library : VirtualDubMod build 2550/release
Video #0
ID : 0
Format : MPEG-4 Visual
Format profile : Advanced Simple@L5
Format settings, BVOP : 2
Format settings, QPel : No
Format settings, GMC : No warppoints
Format settings, Matrix : Default (H.263)
Codec ID : XVID
Codec ID/Hint : XviD
Duration : 2h 7mn
Bit rate : 1 146 Kbps
Width : 720 pixels
Height : 304 pixels
Display aspect ratio : 2.35:1
Frame rate : 25.000 fps
Color space : YUV
Chroma subsampling : 4:2:0
Bit depth : 8 bits
Scan type : Progressive
Compression mode : Lossy
Bits/(Pixel*Frame) : 0.210
Stream size : 1.02 GiB (74%)
Writing library : XviD 1.2.1 (UTC 2008-12-04)
Audio #1
ID : 1
Format : AC-3
Format/Info : Audio Coding 3
Mode extension : CM (complete main)
Codec ID : 2000
Duration : 2h 7mn
Bit rate mode : Constant
Bit rate : 192 Kbps
Channel(s) : 2 channels
Channel positions : Front: L R
Sampling rate : 48.0 KHz
Bit depth : 16 bits
Compression mode : Lossy
Stream size : 175 MiB (12%)
Alignment : Split accross interleaves
Interleave, duration : 40 ms (1.00 video frame)
Interleave, preload duration : 500 ms
Audio #2
ID : 2
Format : AC-3
Format/Info : Audio Coding 3
Mode extension : CM (complete main)
Codec ID : 2000
Duration : 2h 7mn
Bit rate mode : Constant
Bit rate : 192 Kbps
Channel(s) : 2 channels
Channel positions : Front: L R
Sampling rate : 48.0 KHz
Bit depth : 16 bits
Compression mode : Lossy
Stream size : 175 MiB (12%)
Alignment : Split accross interleaves
Interleave, duration : 40 ms (1.00 video frame)
Interleave, preload duration : 500 ms

Скриншот c названием фильма

Скриншоты

Скачать

Скачать торрент!

Как скачивать? · Что такое торрент? · Рейтинг и ограничения

Сайт не распространяет и не хранит электронные версии произведений, а лишь предоставляет доступ к создаваемому пользователями каталогу ссылок на торрент-файлы, которые содержат только списки хеш-сумм

[Профиль] [ЛС]
Показать сообщения:    
Ответить на тему

Текущее время: Сегодня 10:44

Часовой пояс: GMT + 4



Вы не можете начинать темы
Вы не можете отвечать на сообщения
Вы не можете редактировать свои сообщения
Вы не можете удалять свои сообщения
Вы не можете голосовать в опросах
Вы не можете прикреплять файлы к сообщениям
Вы не можете скачивать файлы