Рождество с Белоснежкой / А Snow White Christmas (Кей Урайт / Kay Wright) [1980 г., мультфильм, анимация, DVDRip] MVO

Ответить на тему
 
Автор Сообщение

user ®

Стаж: 11 лет

Сообщений: 15145

Пост Пост: #1 от 25-Дек-2013 08:50

[Цитировать]

Рождество с Белоснежкой / А Snow White Christmas

Год выпуска: 1980
Страна: США
Жанр: анимация
Продолжительность: 00:46:05
Перевод: Профессиональный (многоголосый, закадровый)
Русские субтитры: нет
Режиссер: Кей Урайт
Описание: Продолжение всемирно известной сказки братьев Гримм. У Королевы Белоснежки и Короля-Чародея родилась дочь, которую в честь матери также назвали Белоснежкой. И вот однажды под Рождество принцесса Белоснежка решила сделать подарок всем детям - перестроить старый замок на Темной горе в Рождественский Дворец, где все смогут играть и веселиться. Она не знала, что в замке живет старая колдунья - мачеха ее матери, причинившая ей так много зла... Качество: DVDRip
Формат: AVI
Видео: 688x512 (1.34:1), 25 fps, XviD build 65 ~2059 kbps avg, 0.23 bit/pixel
Аудио: 48 kHz, AC3 Dolby Digital, 2/0 (L,R) ch, ~192 kbps

Скриншоты видео

Подробные технические данные

GeneralComplete name : Rojdestvo.s.Belosnejkoy_Olu6ka.aviFormat : AVIFormat/Info : Audio Video InterleaveFile size : 745 MiBDuration : 46mn 5sOverall bit rate : 2 261 KbpsWriting application : VirtualDubModRus 1.5.10.2 (build 2542/release)Writing library : VirtualDubMod build 2542/release
VideoID : 0Format : MPEG-4 VisualFormat profile : Advanced Simple@L5Format settings, BVOP : 1Format settings, QPel : NoFormat settings, GMC : No warppointsFormat settings, Matrix : CustomCodec ID : XVIDCodec ID/Hint : XviDDuration : 46mn 5sBit rate : 2 059 KbpsWidth : 688 pixelsHeight : 512 pixelsDisplay aspect ratio : 4:3Frame rate : 25.000 fpsColor space : YUVChroma subsampling : 4:2:0Bit depth : 8 bitsScan type : ProgressiveCompression mode : LossyBits/(Pixel*Frame) : 0.234Stream size : 679 MiB (91%)Writing library : XviD 65
AudioID : 1Format : AC-3Format/Info : Audio Coding 3Mode extension : CM (complete main)Format settings, Endianness : BigCodec ID : 2000Duration : 46mn 5sBit rate mode : ConstantBit rate : 192 KbpsChannel(s) : 2 channelsChannel positions : Front: L RSampling rate : 48.0 KHzBit depth : 16 bitsCompression mode : LossyStream size : 63.3 MiB (8%)Alignment : Split accross interleavesInterleave, duration : 40 ms (1.00 video frame)Interleave, preload duration : 500 ms

Обложка 300 dpi

Скачать

Скачать торрент! Рождество с Белоснежкой / А Snow White Christmas (Кей Урайт / Kay Wright) [1980 г., мультфильм, анимация, DVDRip] MVO

Как скачивать? · Что такое торрент? · Рейтинг и ограничения

Сайт не распространяет и не хранит электронные версии произведений, а лишь предоставляет доступ к создаваемому пользователями каталогу ссылок на торрент-файлы, которые содержат только списки хеш-сумм

[Профиль] [ЛС]
Показать сообщения:    
Ответить на тему

Текущее время: Сегодня 19:40

Часовой пояс: GMT + 4



Вы не можете начинать темы
Вы не можете отвечать на сообщения
Вы не можете редактировать свои сообщения
Вы не можете удалять свои сообщения
Вы не можете голосовать в опросах
Вы не можете прикреплять файлы к сообщениям
Вы не можете скачивать файлы