София Прекрасная История принцессы / Sofia the First: Once Upon a Princess (Джэми Митчелл / Jamie Mitchell) [2012, мюзикл, фэнтези, семейный, DVDRip] Dub

Ответить на тему
 
Автор Сообщение

user ®

Стаж: 12 лет

Сообщений: 15145

Пост Пост: #1 от 25-Дек-2013 08:50

[Цитировать]

София Прекрасная История принцессы / Sofia the First: Once Upon a Princess
Страна: США
Жанр: мюзикл, фэнтези, семейный
Продолжительность: 00:47:44
Год выпуска: 2012
Перевод: Профессиональный (дублированный)
Русские субтитры: нет
Режиссёр: Джэми Митчелл / Jamie Mitchell
Роли озвучивали: София - Варвара Доронина
Эмбер - Анатолия Баранова
Джеймс - Семен Кустов
Седрик - Вадим Романов
Королева Миранда - Светлана Кузнецова
Король Роланд - Валерий Соловьев
Церемониймейстер - Олег Федоров
Клевер - Алексей Макрецкий
Флора - Галина Чигинская
Фауна - Елена Дриацкая
Меривезер - Елена Терновая
Черноклюв - Борис Хасанов
Золушка - Ксения Бржезовская
Робин - Екатерина Кабашова
Руби - Анна Хасанова
Миа - Гульназ Насырова
Джейд - Флора Тонгсай
Принц Зандар - Захар Рядных
Принцесса Джун - Флора Тонгсай
Описание: В одном далеком-предалеком королевстве рука об руку правят волшебство и веселье! Знакомьтесь — София Прекрасная, очаровательная маленькая принцесса, которой предстоит впервые выйти в свет.
После того, как мама Софии выходит замуж за короля, девочка становится принцессой. И вот уже маленькая София мчится в Академию по подготовке королевских особ, где строгие преподаватели научат ее всему, что нужно знать принцессе. Но сможет ли София научиться колдовать и подружится ли она со своей новой сводной сестрой? Ей помогут доброта, говорящие животные и советы особенной гостьи Академии — знаменитой Золушки.
Семпл: http://multi-up.com/935452
Качество: DVDRip
Формат: AVI
Видео: 720x400 (1.80:1), 23.976 fps, XviD MPEG-4, 1647 kbps avg, 0.24 bit/pixel
Аудио: 48 kHz, AC3 Dolby Digital, 2/0 (L,R) ch, 192 kbps (Русский)
Аудио 2: 48 kHz, AC3 Dolby Digital, 2/0 (L,R) ch, 192 kbps (Английский)
Субтитры: отсутствуют

Подробные технические данные

Sofiya.prekrasnaya.istoriya.printsessy.avi Format : AVI Format/Info : Audio Video Interleave File size : 699 MiB Duration : 47mn 44s Overall bit rate : 2 046 Kbps Writing application : VirtualDubMod 1.5.10.3 | www.virtualdub-fr.org || (build 2550/release) Writing library : VirtualDubMod build 2550/release Video #0 ID : 0 Format : MPEG-4 Visual Format profile : Advanced Simple@L5 Format settings, BVOP : 1 Format settings, QPel : No Format settings, GMC : No warppoints Format settings, Matrix : Default (MPEG) Codec ID : XVID Codec ID/Hint : XviD Duration : 47mn 44s Bit rate : 1 648 Kbps Width : 720 pixels Height : 400 pixels Display aspect ratio : 16:9 Frame rate : 23.976 fps Color space : YUV Chroma subsampling : 4:2:0 Bit depth : 8 bits Scan type : Progressive Compression mode : Lossy Bits/(Pixel*Frame) : 0.239 Stream size : 563 MiB (81%) Writing library : XviD 64 Audio #1 ID : 1 Format : AC-3 Format/Info : Audio Coding 3 Mode extension : CM (complete main) Codec ID : 2000 Duration : 47mn 44s Bit rate mode : Constant Bit rate : 192 Kbps Channel(s) : 2 channels Channel positions : Front: L R Sampling rate : 48.0 KHz Bit depth : 16 bits Compression mode : Lossy Stream size : 65.6 MiB (9%) Alignment : Split accross interleaves Interleave, duration : 42 ms (1.00 video frame) Interleave, preload duration : 500 ms Audio #2 ID : 2 Format : AC-3 Format/Info : Audio Coding 3 Mode extension : CM (complete main) Codec ID : 2000 Duration : 47mn 44s Bit rate mode : Constant Bit rate : 192 Kbps Channel(s) : 2 channels Channel positions : Front: L R Sampling rate : 48.0 KHz Bit depth : 16 bits Compression mode : Lossy Stream size : 65.6 MiB (9%) Alignment : Split accross interleaves Interleave, duration : 42 ms (1.00 video frame) Interleave, preload duration : 500 ms

Скриншоты

Скачать

Скачать торрент! София Прекрасная История принцессы / Sofia the First: Once Upon a Princess (Джэми Митчелл / Jamie Mitchell) [2012, мюзикл, фэнтези, семейный, DVDRip] Dub

Как скачивать? · Что такое торрент? · Рейтинг и ограничения

Сайт не распространяет и не хранит электронные версии произведений, а лишь предоставляет доступ к создаваемому пользователями каталогу ссылок на торрент-файлы, которые содержат только списки хеш-сумм

[Профиль] [ЛС]
Показать сообщения:    
Ответить на тему

Текущее время: Сегодня 20:59

Часовой пояс: GMT + 4



Вы не можете начинать темы
Вы не можете отвечать на сообщения
Вы не можете редактировать свои сообщения
Вы не можете удалять свои сообщения
Вы не можете голосовать в опросах
Вы не можете прикреплять файлы к сообщениям
Вы не можете скачивать файлы