Вот и Рождество / So This Is Christmas (Ричард Фостер / Richard Foster) [2013, США, драма, мелодрама, комедия, семейный, HDRip] MVO (НТВ+)

Ответить на тему
 
Автор Сообщение

user ®

Стаж: 7 лет 7 месяцев

Сообщений: 20008

Пост Пост: #1 от 25-Дек-2013 08:50

[Цитировать]

Вот и Рождество / So This Is Christmas / драма, мелодрама, комедия
Страна: США
Жанр: драма, мелодрама, комедия
Год выпуска: 2013
Продолжительность: 01:54:14
Перевод: Профессиональный (многоголосый закадровый) НТВ+
Cубтитры: нет
Режиссер: Ричард Фостер / Richard Foster
В ролях: Эрик Робертс, Вивика А. Фокс, Лекси Эйнсуорт, Титус Макин мл., Брайан Мэсси, Эрика Даниэль Родс, Кэссиди Вандалия, Лорен Бёрд
Описание: И в Америке каждая несчастливая семья несчастлива по-своему, особенно, если в семье не мать, а мачеха. Это причина бед и неприязни. Однако любую трудность, и подростковый алкоголизм и наркозависимость, можно преодолеть, если делать это сообща: когда-нибудь даже мачеха становится родной...
Сэмпл: http://multi-up.com/935442
Качество видео: HDRip
Формат видео: AVI
Видео: 720x400 (2.37:1), 23.976 fps, XviD build 73 ~1519 kbps avg, 0.26 bit/pixel
Аудио: AC3, 48.0 KHz, 2 ch, 192 Kbps

MediaInfo

Общее
Полное имя : D:\Vot.i.Rozhdestvo_2013.HDRip2.avi
Формат : AVI
Формат/Информация : Audio Video Interleave
Размер файла : 1,37 Гбайт
Продолжительность : 1 ч. 54 м.
Общий поток : 1720 Кбит/сек
Программа кодирования : VirtualDubMod 1.5.10.3 | www.virtualdub-fr.org || (build 2550/release)
Библиотека кодирования : VirtualDubMod build 2550/release
Видео
Идентификатор : 0
Формат : MPEG-4 Visual
Профиль формата : Advanced Simple@L5
Параметр BVOP формата : 1
Параметр QPel формата : Нет
Параметр GMC формата : Без точки перехода
Параметр матрицы формата : Default (MPEG)
Идентификатор кодека : DX50
Идентификатор кодека/Подсказка : DivX 5
Продолжительность : 1 ч. 54 м.
Битрейт : 1519 Кбит/сек
Ширина : 720 пикселей
Высота : 400 пикселей
Соотношение сторон : 16:9
Частота кадров : 23,976 кадра/сек
Цветовое пространство : YUV
Субдискретизация насыщенности : 4:2:0
Битовая глубина : 8 бит
Тип развёртки : Прогрессивная
Метод сжатия : С потерями
Бит/(Пиксели*Кадры) : 0.220
Размер потока : 1,21 Гбайт (88%)
Библиотека кодирования : XviD 1.2.1 (UTC 2008-12-04)
Аудио
Идентификатор : 1
Формат : AC-3
Формат/Информация : Audio Coding 3
Расширение режима : CM (complete main)
Параметр Endianness формата : Big
Идентификатор кодека : 2000
Продолжительность : 1 ч. 54 м.
Вид битрейта : Постоянный
Битрейт : 192 Кбит/сек
Каналы : 2 канала
Расположение каналов : Front: L R
Частота : 48,0 КГц
Битовая глубина : 16 бит
Метод сжатия : С потерями
Размер потока : 157 Мбайт (11%)
Выравнивание : Разделение по промежуткам
Продолжительность промежутка : 42 мс. (1,00 видеокадр)
Время предзагрузки промежутка : 500 мс.

Скриншот c названием фильма

Скриншоты

Скачать

Скачать торрент!

Как скачивать? · Что такое торрент? · Рейтинг и ограничения

Сайт не распространяет и не хранит электронные версии произведений, а лишь предоставляет доступ к создаваемому пользователями каталогу ссылок на торрент-файлы, которые содержат только списки хеш-сумм

[Профиль] [ЛС]
Показать сообщения:    
Ответить на тему

Текущее время: Сегодня 01:11

Часовой пояс: GMT + 4



Вы не можете начинать темы
Вы не можете отвечать на сообщения
Вы не можете редактировать свои сообщения
Вы не можете удалять свои сообщения
Вы не можете голосовать в опросах
Вы не можете прикреплять файлы к сообщениям
Вы не можете скачивать файлы