Волшебство Санта Клауса / Волшебный мешок Санты / The Magic Sack of Santa Claus (Джулиан Тарраго / Julian Tarrago) [2000 г., мультфильм, DVDRip] DUB + Original

Ответить на тему
 
Автор Сообщение

user ®

Стаж: 13 лет

Сообщений: 15041

Пост Пост: #1 от 25-Дек-2013 02:30

[Цитировать]

Волшебство Санта Клауса / The Magic Sack of Santa Claus

Год выпуска: 2000
Страна: США Испания
Жанр: Мультфильм
Продолжительность: 00:50:29
Перевод: Профессиональный (полное дублирование)
Русские субтитры: нет-Режиссер: Джулиан Тарраго / Julian Tarrago-Описание: Для Кроко, Дилы и остальной компании наступили Рождественские праздники. Они очень взволнованы и готовятся отметить этот большой праздник. Но они даже не догадываются, какие замечательные приключения их ожидают в это Рождество. Бланшет, дедушка Дилы, — деревенский сапожник, попросил Кроко и Дилу отнести необычный гостинец.
Приключения приводят друзей в лесную чащу, где они должны отдать пару сапог и волшебный носок, в котором помещаются все Рождественские игрушки мира, и отдать не просто кому-то, а самому красноносому оленю Рудольфу. Рудольф, в свою очередь, должен передать все эти вещи Санта-Клаусу, иначе дети со всего мира не получат подарки в этом году. На этом задании Кроко и Дилу подстерегают много опасностей. При помощи везения и волшебного духа Рождества наши маленькие герои не остановятся ни перед чем, чтобы довести работу до конца.
-[КиноПоиск.ru] [Сэмпл]-Качество видео: DVDRip
Формат видео: AVI
Видео: 688x512 (1.34:1), 25 fps, XviD build 65 ~1668 kbps avg, 0.19 bit/pixel
Аудио #1: Русский, 48 kHz, AC3 Dolby Digital, 2/0 (L,R) ch, ~192 kbps
Аудио #2: Английский, 48 kHz, AC3 Dolby Digital, 2/0 (L,R) ch, ~192 kbps

MediaInfo

GeneralComplete name : Volshebstvo.Santa.Klausa_Olu6ka.aviFormat : AVIFormat/Info : Audio Video InterleaveFile size : 747 MiBDuration : 50mn 29sOverall bit rate : 2 068 KbpsWriting application : VirtualDubModRus 1.5.10.2 (build 2542/release)Writing library : VirtualDubMod build 2542/release
VideoID : 0Format : MPEG-4 VisualFormat profile : Advanced Simple@L5Format settings, BVOP : 1Format settings, QPel : NoFormat settings, GMC : No warppointsFormat settings, Matrix : CustomCodec ID : XVIDCodec ID/Hint : XviDDuration : 50mn 29sBit rate : 1 670 KbpsWidth : 688 pixelsHeight : 512 pixelsDisplay aspect ratio : 4:3Frame rate : 25.000 fpsColor space : YUVChroma subsampling : 4:2:0Bit depth : 8 bitsScan type : ProgressiveCompression mode : LossyBits/(Pixel*Frame) : 0.190Stream size : 603 MiB (81%)Writing library : XviD 65
Audio #1ID : 1Format : AC-3Format/Info : Audio Coding 3Mode extension : CM (complete main)Format settings, Endianness : BigCodec ID : 2000Duration : 50mn 29sBit rate mode : ConstantBit rate : 192 KbpsChannel(s) : 2 channelsChannel positions : Front: L RSampling rate : 48.0 KHzBit depth : 16 bitsCompression mode : LossyDelay relative to video : 960msStream size : 69.3 MiB (9%)Alignment : Split accross interleavesInterleave, duration : 40 ms (1.00 video frame)Interleave, preload duration : 500 ms
Audio #2ID : 2Format : AC-3Format/Info : Audio Coding 3Mode extension : CM (complete main)Format settings, Endianness : BigCodec ID : 2000Duration : 50mn 29sBit rate mode : ConstantBit rate : 192 KbpsChannel(s) : 2 channelsChannel positions : Front: L RSampling rate : 48.0 KHzBit depth : 16 bitsCompression mode : LossyDelay relative to video : 960msStream size : 69.3 MiB (9%)Alignment : Split accross interleavesInterleave, duration : 40 ms (1.00 video frame)Interleave, preload duration : 500 ms

Обложка 300 dpi

Скачать

Скачать торрент! Волшебство Санта Клауса / Волшебный мешок Санты / The Magic Sack of Santa Claus (Джулиан Тарраго / Julian Tarrago) [2000 г., мультфильм, DVDRip] DUB + Original

Как скачивать? · Что такое торрент? · Рейтинг и ограничения

Сайт не распространяет и не хранит электронные версии произведений, а лишь предоставляет доступ к создаваемому пользователями каталогу ссылок на торрент-файлы, которые содержат только списки хеш-сумм

[Профиль] [ЛС]
Показать сообщения:    
Ответить на тему

Текущее время: Сегодня 00:29

Часовой пояс: GMT + 4



Вы не можете начинать темы
Вы не можете отвечать на сообщения
Вы не можете редактировать свои сообщения
Вы не можете удалять свои сообщения
Вы не можете голосовать в опросах
Вы не можете прикреплять файлы к сообщениям
Вы не можете скачивать файлы