История любви Джаянты-бхая / Jayantabhai Ki Luv Story (Виннил Маркан / Vinnil Markan) [2013, Индия, Боевик, комедия, мелодрама, DVDRip] VO + Original + Sub Eng

Ответить на тему
 
Автор Сообщение

user ®

Стаж: 12 лет

Сообщений: 15092

Пост Пост: #1 от 25-Дек-2013 02:30

[Цитировать]

История любви Джаянты-бхая / Jayantabhai Ki Luv Story
-Страна: Индия
Жанр: Боевик, комедия, мелодрама
Год выпуска: 2013
Продолжительность: 02:07:25--Язык: Хинди
Перевод: Одноголосый закадровый - datynet
Cубтитры: Английские--Режиссер: Виннил Маркан / Vinnil Markan-В ролях: Вивек Оберой, Неха Шарма, Шишир Шарма, Нассер, Закир Хуссейн, Рахул Сингх--Описание: Красавица Симрин приезжает из провинциального индийского городка в Мумбай, где устраивается на хорошую работу. Живёт она в неплохой квартирке в тихом районе, и, кажется, её жизнь налажена и спокойна. Вот только с работы её вскоре увольняют, и теперь ей придётся искать жильё себе по средствам, поэтому она снимает квартиру в криминальном местечке. По соседству с ней живёт гангстер и уличный бандит Джаянта, он уверен, что все должны его бояться. Здесь он контролирует мелких воришек, карманников, уличных наркодиллеров, а сам является членом преступной группировки…-- | Сэмпл--Качество видео: DVDRip
Формат видео: AVI-Видео: XVID, 720х304, 23.976 fps, 1169 Kbps
Аудио #1: MP3, 44.1 КHz, 2 сh, 192 Kbps [Russian]
Аудио #2: AC3, 48 КHz, 2 сh, 192 Kbps [Hindi]--Сэмпл / Sample--Перевод на русский язык: baksterier0 (спасибо!)
Озвучивание: datynet (спасибо!)-- -
-

Скриншот с названием


-

Скриншоты:


-

MI

Общее
Полное имя : D:\[Релизы]\Istoriya.Lubvi.Jayanty.Bhaya.2013.DVDRip.XviD\Istoriya.Lubvi.Jayanty.Bhaya.2013.DVDRip.XviD.avi
Формат : AVI
Формат/Информация : Audio Video Interleave
Размер файла : 1,40 Гбайт
Продолжительность : 2 ч. 7 м.
Общий поток : 1567 Кбит/сек
Программа кодирования : VirtualDubMod 1.5.10.2 (build 2540/release)
Библиотека кодирования : VirtualDubMod build 2540/release
Видео
Идентификатор : 0
Формат : MPEG-4 Visual
Профиль формата : Advanced Simple@L5
Параметр BVOP формата : 2
Параметр QPel формата : Нет
Параметр GMC формата : Без точки перехода
Параметр матрицы формата : Выборочная
Идентификатор кодека : XVID
Идентификатор кодека/Подсказка : XviD
Продолжительность : 2 ч. 7 м.
Битрейт : 1169 Кбит/сек
Ширина : 720 пикселей
Высота : 304 пикселя
Соотношение сторон : 2,35:1
Частота кадров : 23,976 кадра/сек
Цветовое пространство : YUV
Субдискретизация насыщенности : 4:2:0
Битовая глубина : 8 бит
Тип развёртки : Прогрессивная
Метод сжатия : С потерями
Бит/(Пиксели*Кадры) : 0.223
Размер потока : 1,04 Гбайт (75%)
Библиотека кодирования : XviD 1.2.1 (UTC 2008-12-04)
Аудио #1
Идентификатор : 1
Формат : MPEG Audio
Версия формата : Version 1
Профиль формата : Layer 3
Идентификатор кодека : 55
Идентификатор кодека/Подсказка : MP3
Продолжительность : 2 ч. 7 м.
Вид битрейта : Постоянный
Битрейт : 192 Кбит/сек
Каналы : 2 канала
Частота : 44,1 КГц
Метод сжатия : С потерями
Размер потока : 175 Мбайт (12%)
Выравнивание : Разделение по промежуткам
Продолжительность промежутка : 42 мс. (1,00 видеокадр)
Время предзагрузки промежутка : 500 мс.
Аудио #2
Идентификатор : 2
Формат : AC-3
Формат/Информация : Audio Coding 3
Расширение режима : CM (complete main)
Параметр Endianness формата : Big
Идентификатор кодека : 2000
Продолжительность : 2 ч. 7 м.
Вид битрейта : Постоянный
Битрейт : 192 Кбит/сек
Каналы : 2 канала
Расположение каналов : Front: L R
Частота : 48,0 КГц
Битовая глубина : 16 бит
Метод сжатия : С потерями
Размер потока : 175 Мбайт (12%)
Выравнивание : Разделение по промежуткам
Продолжительность промежутка : 42 мс. (1,00 видеокадр)
Время предзагрузки промежутка : 500 мс.
-
Скачать

Скачать торрент! История любви Джаянты-бхая / Jayantabhai Ki Luv Story (Виннил Маркан / Vinnil Markan) [2013, Индия, Боевик, комедия, мелодрама, DVDRip] VO + Original + Sub Eng

Как скачивать? · Что такое торрент? · Рейтинг и ограничения

Сайт не распространяет и не хранит электронные версии произведений, а лишь предоставляет доступ к создаваемому пользователями каталогу ссылок на торрент-файлы, которые содержат только списки хеш-сумм

[Профиль] [ЛС]
Показать сообщения:    
Ответить на тему

Текущее время: Сегодня 06:53

Часовой пояс: GMT + 4



Вы не можете начинать темы
Вы не можете отвечать на сообщения
Вы не можете редактировать свои сообщения
Вы не можете удалять свои сообщения
Вы не можете голосовать в опросах
Вы не можете прикреплять файлы к сообщениям
Вы не можете скачивать файлы