Ученик Санты / Santa\'s Apprentice (Люк Винчигуэрра / Luc Vinciguerra) [2010, мультфильм, комедия, BDRip] Dub + AVO (Живов) + Eng

Ответить на тему
 
Автор Сообщение

user ®

Стаж: 11 лет

Сообщений: 15145

Пост Пост: #1 от 24-Дек-2013 23:20

[Цитировать]

Ученик Санты / Santa's Apprentice- Страна: Австралия, Франция, Ирландия
Жанр: мультфильм, комедия
Год выпуска: 2010
Продолжительность: 01:20:45
Перевод 1: Профессиональный (полное дублирование)
Перевод 2: Авторский (одноголосый закадровый) - Юрий Живов
Субтитры: Нет-Режиссер: Люк Винчигуэрра / Luc Vinciguerra-Описание: Старый добрый Санта не хочет уходить на пенсию, но правила есть правила - он должен кого-то обучить себе на замену. Счастливчика, которого выберут из числа миллионов детей, должны звать Николасом, он должен быть сиротой и, конечно, обладать чистым сердцем. И такой ребенок есть!
На другом конце света живет маленький мальчик, который идеально подходит для этой ответственной миссии, но неуверенность в себе и, главное, страх высоты делают его никудышным претендентом. Согласится ли Санта помочь своему ученику справиться со страхами и достойно занять его место?
-Рейтинг:

MPAA: - Нет возрастных ограничений-Мировая премьера: 24 ноября 2010
Релиз на DVD: 23 декабря 2010, «Новый Диск»-Доп. информация:
- Перевод Юрия Живова осуществлен в декабре 2013 г. силами форумов E180 и WIDESCREEN "Кино в Авторском переводе" по заказу: foxlight, Multmir, Nick, bla_, furria62, dino crisis, xerman13, ZeDOK, DFCbit, Savely, Диммон, пуля, zeleniy, Daniel Rock, Некрасов, ilbilb, oleg-k, luka69, ultrajeka, olegsoleg, SavineX78.
- Звуковая дорожка с переводом Ю. Живова получена путем наложения чистого голоса на центральный канал декодированной (английской) DTS-HD MA 5.1 дорожки - xfiles.
- Также отдельное спасибо xfiles за подготовку русской звуковой дорожки (дубляж).
-Семпл-Качество: BDRip
Формат: AVI
Видео: 720x400 (1.80:1), 24 fps, XviD build 65 ~1934 kbps avg, 0.28 bit/pixel
Аудио 1: 48 kHz, AC3 Dolby Digital, 2/0 (L,R) ch, ~192 kbps - Rus
Аудио 2: 48 kHz, AC3 Dolby Digital, 3/2 (L,C,R,l,r) + LFE ch, ~448 kbps - Eng
Аудио 3: 48 kHz, AC3 Dolby Digital, 3/2 (L,C,R,l,r) + LFE ch, ~448 kbps - Юрий Живов (отдельным файлом)
Субтитры: Отсутствуют

MI

Format : AVIFormat/Info : Audio Video InterleaveFile size : 1.46 GiBDuration : 1h 20mnOverall bit rate : 2 589 KbpsWriting application : VirtualDubMod 1.5.10.3 | www.virtualdub-fr.org || (build 2550/release)Writing library : VirtualDubMod build 2550/release
VideoID : 0Format : MPEG-4 VisualFormat profile : Advanced Simple@L5Format settings, BVOP : 2Format settings, QPel : NoFormat settings, GMC : No warppointsFormat settings, Matrix : CustomCodec ID : XVIDCodec ID/Hint : XviDDuration : 1h 20mnBit rate : 1 935 KbpsWidth : 720 pixelsHeight : 400 pixelsDisplay aspect ratio : 16:9Frame rate : 24.000 fpsColor space : YUVChroma subsampling : 4:2:0Bit depth : 8 bitsScan type : ProgressiveCompression mode : LossyBits/(Pixel*Frame) : 0.280Stream size : 1.09 GiB (75%)Writing library : XviD 65
Audio #1ID : 1Format : AC-3Format/Info : Audio Coding 3Mode extension : CM (complete main)Format settings, Endianness : BigCodec ID : 2000Duration : 1h 20mnBit rate mode : ConstantBit rate : 192 KbpsChannel(s) : 2 channelsChannel positions : Front: L RSampling rate : 48.0 KHzBit depth : 16 bitsCompression mode : LossyStream size : 111 MiB (7%)Alignment : Split accross interleavesInterleave, duration : 42 ms (1.00 video frame)Interleave, preload duration : 500 ms
Audio #2ID : 2Format : AC-3Format/Info : Audio Coding 3Mode extension : CM (complete main)Format settings, Endianness : BigCodec ID : 2000Duration : 1h 20mnBit rate mode : ConstantBit rate : 448 KbpsChannel(s) : 6 channelsChannel positions : Front: L C R, Side: L R, LFESampling rate : 48.0 KHzBit depth : 16 bitsCompression mode : LossyStream size : 259 MiB (17%)Alignment : Split accross interleavesInterleave, duration : 42 ms (1.00 video frame)Interleave, preload duration : 500 ms
-
Скачать

Скачать торрент! Ученик Санты / Santa\'s Apprentice (Люк Винчигуэрра / Luc Vinciguerra) [2010, мультфильм, комедия, BDRip] Dub + AVO (Живов) + Eng

Как скачивать? · Что такое торрент? · Рейтинг и ограничения

Сайт не распространяет и не хранит электронные версии произведений, а лишь предоставляет доступ к создаваемому пользователями каталогу ссылок на торрент-файлы, которые содержат только списки хеш-сумм

[Профиль] [ЛС]
Показать сообщения:    
Ответить на тему

Текущее время: Сегодня 18:40

Часовой пояс: GMT + 4



Вы не можете начинать темы
Вы не можете отвечать на сообщения
Вы не можете редактировать свои сообщения
Вы не можете удалять свои сообщения
Вы не можете голосовать в опросах
Вы не можете прикреплять файлы к сообщениям
Вы не можете скачивать файлы