Солдаты Буффало / Buffalo Soldiers (Грегор Джордан / Gregor Jordan) [2001, Великобритания, Германия, триллер, драма, комедия, криминал, военный, WED-DL 720p] Dub + Sub Rus, Eng + Original Eng

Ответить на тему
 
Автор Сообщение

user ®

Стаж: 7 лет 7 месяцев

Сообщений: 20008

Пост Пост: #1 от 24-Дек-2013 23:20

[Цитировать]

Солдаты Буффало / Buffalo Soldiers Страна: Великобритания, Германия
Студия: Gorilla Entertainment, Strange Fiction, Miramax Films
Жанр: триллер, драма, комедия, криминал, военный
Год выпуска: 2001
Продолжительность: 01:38:47
Перевод: Профессиональный (дублированный) [МОСФИЛЬМ-мастер (DVD R5 - "Парадиз"]
Cубтитры: русские, английские, SDH
Оригинальная аудиодорожка: английский
Режиссер: Грегор Джордан / Gregor Jordan
В ролях: Хоакин Феникс, Эд Харрис, Скотт Гленн, Анна Пэкуин, Элизабет МакГоверн, Майкл Пенья, Леон, Гэбриел Манн, Дин Стокуэлл, Брайан Дилейт, Гленн Фицджералд, Джимми Рэй Уикс
Описание: 1989, Германия. Соединение Западной и восточной Германии и конец холодной войны на носу, но для армейского писаря Рэя Элвуда горячая схватка только начинается. Обаятельный мошенник Элвуд стоит на страже свободы во время дневной службы на американской военной базе под Штуттгартом, а во всё остающееся время занимается торговлей плохо лежащего армейского имущества.
Больше от скуки чем из жадности, молодой солдат, не лишенный здравого смысла и чувства юмора, развертывает сеть операций на черном рынке — его команда варит наркотики в армейском подвале, снабжает немецких домохозяек американскими чистителями и всячески помогает передвинуть припасы армии, от картошки до запчастей, своим покупателям.
В один прекрасный день, Элвуд и его команда находят настоящий приз — склад ракет и боеголовок, который они немедленно умыкают в сохранное место. Но в то время как Элвуд входит в контакт с опасным покупателем, на базу приезжает новый сержант который не намерен закрывать глаза на солдатские проделки и который с первого взгляда не переносит нахального писаря. В свою очередь, Элвуд крутит роман с непослушной дочерью сержанта и этим окончательно выводит его из себя. Настоящая война между Элвудом и сержантом Ли имеет самые непредсказуемые результаты…-Доп. информация: -Тип релиза: WEB-DL 720p
Контейнер: MKV
Видео: MPEG-4 AVC Video, 1280x542p / 2,35:1 (16:9) / ~4010 kbps / 23,976 fps / Main@L3.1
Аудио 1: Russian: DTS 5.1 ch, 24bit, 755kbps, 48 kHz |дубляж|
Аудио 2: English: AC3, 6 ch, 384 kbps, 48 kHz
Аудио 3: English: AAC (LC), 2.0 ch, ~160 kbps, 48 kHz | iTunes
Формат субтитров: softsub (SRT)
Главы: подписаны

MediaInfo

Общее
Уникальный идентификатор : 179630998313294006614638551820898415059 (0x8723ABFEF67E6ADE9F86C26636EC31D3)
Полное имя : M:\Солдаты Буффало 2001.WEB-DL.720p.ДБ.Eng2.mkv
Формат : Matroska
Версия формата : Version 4 / Version 2
Размер файла : 3,66 Гбайт
Продолжительность : 1 ч. 38 м.
Общий поток : 5301 Кбит/сек
Название фильма : Buffalo Soldiers (2001)
Дата кодирования : UTC 2013-12-23 18:38:33
Программа кодирования : mkvmerge v6.6.0 ('The Edge Of The In Between') built on Dec 1 2013 17:55:00
Библиотека кодирования : libebml v1.3.0 + libmatroska v1.4.1
Видео
Идентификатор : 1
Формат : AVC
Формат/Информация : Advanced Video Codec
Профиль формата : Main@L3.1
Параметр CABAC формата : Нет
Параметр ReFrames формата : 2 кадра
Параметр GOP формата : N=1
Идентификатор кодека : V_MPEG4/ISO/AVC
Продолжительность : 1 ч. 38 м.
Ширина : 1280 пикселей
Высота : 542 пикселя
Соотношение сторон : 2,35:1
Режим частоты кадров : Постоянный
Частота кадров : 23,976 кадра/сек
Цветовое пространство : YUV
Субдискретизация насыщенности : 4:2:0
Битовая глубина : 8 бит
Тип развёртки : Прогрессивная
Язык : English
Default : Да
Forced : Нет
Основные цвета : BT.709
Характеристики трансфера : BT.709
Коэффициенты матрицы : BT.709
Аудио #1
Идентификатор : 2
Формат : DTS
Формат/Информация : Digital Theater Systems
Режим : 16
Параметр Endianness формата : Big
Идентификатор кодека : A_DTS
Продолжительность : 1 ч. 38 м.
Вид битрейта : Постоянный
Битрейт : 755 Кбит/сек
Каналы : 6 каналов
Расположение каналов : Front: L C R, Side: L R, LFE
Частота : 48,0 КГц
Битовая глубина : 24 бит
Метод сжатия : С потерями
Размер потока : 534 Мбайт (14%)
Заголовок : DTS 5.1ch 24-bit 755kbps - дубляж ("МОСФИЛЬМ-мастер" DVD9 R5 - 2003, "Парадиз")
Язык : Russian
Default : Да
Forced : Нет
Аудио #2
Идентификатор : 3
Формат : AC-3
Формат/Информация : Audio Coding 3
Расширение режима : CM (complete main)
Параметр Endianness формата : Big
Идентификатор кодека : A_AC3
Продолжительность : 1 ч. 38 м.
Вид битрейта : Постоянный
Битрейт : 384 Кбит/сек
Каналы : 6 каналов
Расположение каналов : Front: L C R, Side: L R, LFE
Частота : 48,0 КГц
Битовая глубина : 16 бит
Метод сжатия : С потерями
Размер потока : 272 Мбайт (7%)
Заголовок : AC3 6ch 384kbps
Язык : English
Default : Нет
Forced : Нет
Аудио #3
Идентификатор : 4
Формат : AAC
Формат/Информация : Advanced Audio Codec
Профиль формата : LC
Идентификатор кодека : A_AAC
Продолжительность : 1 ч. 38 м.
Каналы : 2 канала
Расположение каналов : Front: L R
Частота : 48,0 КГц
Метод сжатия : С потерями
Заголовок : AAC (LC) 2.0ch ~160kbps - original
Язык : English
Default : Нет
Forced : Нет
Текст #1
Идентификатор : 5
Формат : UTF-8
Идентификатор кодека : S_TEXT/UTF8
Идентификатор кодека/Информация : UTF-8 Plain Text
Язык : Russian
Default : Нет
Forced : Нет
Текст #2
Идентификатор : 6
Формат : UTF-8
Идентификатор кодека : S_TEXT/UTF8
Идентификатор кодека/Информация : UTF-8 Plain Text
Язык : English
Default : Нет
Forced : Нет
Текст #3
Идентификатор : 7
Формат : UTF-8
Идентификатор кодека : S_TEXT/UTF8
Идентификатор кодека/Информация : UTF-8 Plain Text
Заголовок : SDH
Язык : English
Default : Нет
Forced : Нет
Меню
00:00:00.000 : en:Opening Credits:The Dull Fight
00:07:38.000 : en:U.S. Army's Finest
00:14:53.000 : en:Mission Complete?
00:22:46.000 : en:Prime Merchandise
00:28:18.000 : en:Trouble With Top
00:35:40.000 : en:A New Roommate
00:38:50.000 : en:Is It Worth It?
00:43:42.000 : en:Target Practice
00:49:46.000 : en:Dueling Boars
00:59:19.000 : en:Terrible Timing
01:05:18.000 : en:Talking Business
01:10:33.000 : en:A Brief Exercise
01:15:27.000 : en:Time To Cook
01:19:18.000 : en:Fighting Fears
01:24:25.000 : en:Busted
01:30:12.000 : en:Boiling Point
01:34:26.000 : en:End Credits
Скачать

Скачать торрент!

Как скачивать? · Что такое торрент? · Рейтинг и ограничения

Сайт не распространяет и не хранит электронные версии произведений, а лишь предоставляет доступ к создаваемому пользователями каталогу ссылок на торрент-файлы, которые содержат только списки хеш-сумм

[Профиль] [ЛС]
Показать сообщения:    
Ответить на тему

Текущее время: Сегодня 22:41

Часовой пояс: GMT + 4



Вы не можете начинать темы
Вы не можете отвечать на сообщения
Вы не можете редактировать свои сообщения
Вы не можете удалять свои сообщения
Вы не можете голосовать в опросах
Вы не можете прикреплять файлы к сообщениям
Вы не можете скачивать файлы