Как громом пораженный / Thunderstruck (Джон Уайтселл / John Whitesell) [2012, США, комедия, семейный, BDRip 720p] Dub + Original Eng + Sub Rus, Eng

Ответить на тему
 
Автор Сообщение

user ®

Стаж: 7 лет 7 месяцев

Сообщений: 20008

Пост Пост: #1 от 24-Дек-2013 23:20

[Цитировать]

Как громом пораженный / Thunderstruck
«NBA superstar Kevin Durant has got game. His biggest fan has none. Things are about to switch!»
Страна: США
Студия: KARZ ENTERTAINMENT/GOODWIN SPORTS
Жанр: комедия, семейный
Год выпуска: 2012
Продолжительность: 1:33:59
Перевод: Профессиональный (дублированный)
Cубтитры: русские, английские
Оригинальная аудиодорожка: английский
Режиссер: Джон Уайтселл / John Whitesell
В ролях: Кевин Дюрант, Тейлор Грэй, Брэндон Т. Джексон, Лерреми Док Шоу, Джеймс Белуши, Тристин Мейс, Роберт Белуши, Спенсер Дэниелс, Уильям Рэгсдэйл, Хана Хэйес
Описание: Неуклюжий подросток Брайан чудесным образом получает талант знаменитого баскетболиста Кевина Дюранта и молниеносно становится звездой своей школьной команды, в то время как Кевин полностью утрачивает способность попадать в кольцо. Плей-офф приближается, и Брайану становится не по себе от того, что пока он наслаждается успехом, его кумиру грозит бесславное завершение карьеры...
Сэмпл: http://multi-up.com/935328
Тип релиза: BDRip 720p
Контейнер: MKV
Видео: MPEG4, 1280x720 (16:9), 5124 kbps, AVC, 23.976fps
Аудио 1: Russian: АС3, 48000 Hz, 2 каналов, 192 kbps, 16 bit
Аудио 2: English: DTS, 48000 Hz, 6 каналов, 1510 kbps, 24 bit

MediaInfo

D:\....\Как громом пораженный 2012\Kak.grom.porazhennyj.2012.D.BDRip.720p.mkv
General
Unique ID : 208559037227435116471116498215105745224 (0x9CE7026E635B7B75AA461D2FCCD45148)
Complete name : D:\....\Как громом пораженный 2012\Kak.grom.porazhennyj.2012.D.BDRip.720p.mkv
Format : Matroska
Format version : Version 2
File size : 4.48 GiB
Duration : 1h 33mn
Overall bit rate : 6 820 Kbps
Encoded date : UTC 2013-07-28 22:57:01
Writing application : mkvmerge v5.2.0 ('I can't explain') built on Dec 18 2011 18:12:03
Writing library : libebml v1.2.3 + libmatroska v1.3.0
Video #1
ID : 1
Format : AVC
Format/Info : Advanced Video Codec
Format profile : High@L4.1
Format settings, CABAC : No
Format settings, ReFrames : 5 frames
Muxing mode : Header stripping
Codec ID : V_MPEG4/ISO/AVC
Duration : 1h 33mn
Bit rate : 5 124 Kbps
Width : 1 280 pixels
Height : 720 pixels
Display aspect ratio : 16:9
Frame rate mode : Constant
Frame rate : 23.976 fps
Color space : YUV
Chroma subsampling : 4:2:0
Bit depth : 8 bits
Scan type : Progressive
Bits/(Pixel*Frame) : 0.232
Stream size : 3.27 GiB (73%)
Writing library : x264 core 128
Encoding settings : cabac=0 / ref=5 / deblock=1:1:0 / analyse=0x3:0x133 / me=umh / subme=8 / psy=1 / psy_rd=1.00:0.00 / mixed_ref=1 / me_range=16 / chroma_me=1 / trellis=1 / 8x8dct=1 / cqm=0 / deadzone=21,11 / fast_pskip=0 / chroma_qp_offset=-2 / threads=12 / lookahead_threads=2 / sliced_threads=0 / nr=0 / decimate=1 / interlaced=0 / bluray_compat=0 / constrained_intra=0 / bframes=3 / b_pyramid=2 / b_adapt=2 / b_bias=0 / direct=3 / weightb=1 / open_gop=0 / weightp=0 / keyint=240 / keyint_min=24 / scenecut=40 / intra_refresh=0 / rc_lookahead=50 / rc=2pass / mbtree=1 / bitrate=5124 / ratetol=1.0 / qcomp=0.60 / qpmin=4 / qpmax=69 / qpstep=4 / cplxblur=20.0 / qblur=0.5 / vbv_maxrate=62500 / vbv_bufsize=78125 / nal_hrd=none / ip_ratio=1.40 / aq=1:1.00
Language : English
Default : Yes
Forced : No
Color primaries : BT.709
Transfer characteristics : BT.709
Matrix coefficients : BT.709
Audio #2
ID : 2
Format : AC-3
Format/Info : Audio Coding 3
Mode extension : CM (complete main)
Format settings, Endianness : Big
Muxing mode : Header stripping
Codec ID : A_AC3
Duration : 1h 33mn
Bit rate mode : Constant
Bit rate : 192 Kbps
Channel(s) : 2 channels
Channel positions : Front: L R
Sampling rate : 48.0 KHz
Bit depth : 16 bits
Compression mode : Lossy
Stream size : 129 MiB (3%)
Language : Russian
Default : Yes
Forced : Yes
Audio #3
ID : 3
Format : DTS
Format/Info : Digital Theater Systems
Mode : 16
Format settings, Endianness : Big
Muxing mode : Header stripping
Codec ID : A_DTS
Duration : 1h 33mn
Bit rate mode : Constant
Bit rate : 1 509 Kbps
Channel(s) : 6 channels
Channel positions : Front: L C R, Side: L R, LFE
Sampling rate : 48.0 KHz
Bit depth : 24 bits
Compression mode : Lossy
Stream size : 1 015 MiB (22%)
Language : English
Default : No
Forced : No
Text #4
ID : 4
Format : UTF-8
Codec ID : S_TEXT/UTF8
Codec ID/Info : UTF-8 Plain Text
Language : Russian
Default : No
Forced : No
Text #5
ID : 5
Format : UTF-8
Codec ID : S_TEXT/UTF8
Codec ID/Info : UTF-8 Plain Text
Language : English
Default : No
Forced : No

Скриншоты

Скачать

Скачать торрент!

Как скачивать? · Что такое торрент? · Рейтинг и ограничения

Сайт не распространяет и не хранит электронные версии произведений, а лишь предоставляет доступ к создаваемому пользователями каталогу ссылок на торрент-файлы, которые содержат только списки хеш-сумм

[Профиль] [ЛС]
Показать сообщения:    
Ответить на тему

Текущее время: Сегодня 02:06

Часовой пояс: GMT + 4



Вы не можете начинать темы
Вы не можете отвечать на сообщения
Вы не можете редактировать свои сообщения
Вы не можете удалять свои сообщения
Вы не можете голосовать в опросах
Вы не можете прикреплять файлы к сообщениям
Вы не можете скачивать файлы