Красивая жизнь / Как разобраться с делами / Taking Care of Business (Артур Хиллер / Arthur Hiller) [1990, США, комедия, WEB-DL 720p] MVO + Dub + 2х AVO + Sub Eng + Original Eng

Ответить на тему
 
Автор Сообщение

user ®

Стаж: 7 лет 7 месяцев

Сообщений: 20008

Пост Пост: #1 от 24-Дек-2013 23:20

[Цитировать]

Красивая жизнь / Как разобраться с делами / Taking Care of Business Страна: США
Студия: Hollywood Pictures, Silver Screen Partners IV
Жанр: комедия
Год выпуска: 1990
Продолжительность: 01:48:02
Перевод 1: Профессиональный (многоголосый закадровый) ["ОРТ"]
Перевод 2: Профессиональный (дублированный) ["СВ-Дубль"]
Перевод 3: Авторский (одноголосый закадровый) [А.Михалёв]
Перевод 4: Авторский (одноголосый закадровый) [А.Гаврилов]
Cубтитры: английские, SDH
Оригинальная аудиодорожка: английский
Режиссер: Артур Хиллер / Arthur Hiller
В ролях: Джеймс Белуши, Чарльз Гродин, Энн Де Сальво, Лорин Локлин, Стивен Эллиот, Гектор Элизондо, Вероника Хамель, Мако, Гейтс МакФэдден, Джон де Ланси, Кен Фори, Крис Барнс, Джилл Джонсон, Том Нолан, Сэльма Арчерд, Джанет Джулиан
Описание: Что может означать для преуспевающего бизнесмена потеря органайзера со всеми кредитными карточками, наличными деньгами и ключами от особняка в Малибу? Именно это предстоит выяснить Спенсеру Барнсу, преуспевающему рекламному менеджеру.
Но настоящие неприятности для него начинаются тогда, когда его органайзер попадает в руки сбежавшего из тюрьмы Джимми Дворски, который проводит больше времени в заключении, чем на свободе. С этого момента жизнь обоих настолько круто меняется, что дух захватывает.-Доп. информация: -Тип релиза: WEB-DL 720p
Контейнер: MKV
Видео: MPEG-4 AVC Video, 1280x720p / 1,78:1 (16:9) / ~4162 kbps / 23,976 fps / High@L3.1
Аудио 1: Russian: AC3 2.0 ch, 192 kbps, 48 kHz | многоголосый
Аудио 2: Russian: AC3 2.0 mono ch, 192 kbps, 48 kHz | дубляж (+ короткие вставки многоголосого
Аудио 3: Russian: AC3 2.0 ch, 192 kbps, 48 kHz | одноголосый (Михалёв)
Аудио 4: Russian: AC3 2.0 ch, 192 kbps, 48 kHz | одноголосый (Гаврилов)
Аудио 5: English: AAC (LC), 2.0 ch, ~162 kbps, 48 kHz
Формат субтитров: softsub (SRT)
Главы: подписаны

MediaInfo

Общее
Уникальный идентификатор : 184339386499973365689921174692383199523 (0x8AAE7974D60949F68E409EFC1ED89123)
Полное имя : M:\Красивая жизнь 1990.WEB-DL.720p\Красивая жизнь 1990.WEB-DL.720p.ПМ.ДБ.2хАО.Eng.mkv
Формат : Matroska
Версия формата : Version 4 / Version 2
Размер файла : 3,84 Гбайт
Продолжительность : 1 ч. 48 м.
Общий поток : 5093 Кбит/сек
Название фильма : Taking Care of Business (1990)
Дата кодирования : UTC 2013-12-24 17:49:58
Программа кодирования : mkvmerge v6.6.0 ('The Edge Of The In Between') built on Dec 1 2013 17:55:00
Библиотека кодирования : libebml v1.3.0 + libmatroska v1.4.1
Видео
Идентификатор : 1
Формат : AVC
Формат/Информация : Advanced Video Codec
Профиль формата : High@L3.1
Параметр CABAC формата : Нет
Параметр ReFrames формата : 2 кадра
Идентификатор кодека : V_MPEG4/ISO/AVC
Продолжительность : 1 ч. 48 м.
Ширина : 1280 пикселей
Высота : 720 пикселей
Соотношение сторон : 16:9
Режим частоты кадров : Постоянный
Частота кадров : 23,976 кадра/сек
Цветовое пространство : YUV
Субдискретизация насыщенности : 4:2:0
Битовая глубина : 8 бит
Тип развёртки : Прогрессивная
Язык : English
Default : Да
Forced : Нет
Основные цвета : BT.709
Характеристики трансфера : BT.709
Коэффициенты матрицы : BT.709
Аудио #1
Идентификатор : 2
Формат : AC-3
Формат/Информация : Audio Coding 3
Расширение режима : CM (complete main)
Параметр Endianness формата : Big
Идентификатор кодека : A_AC3
Продолжительность : 1 ч. 48 м.
Вид битрейта : Постоянный
Битрейт : 192 Кбит/сек
Каналы : 2 канала
Расположение каналов : Front: L R
Частота : 48,0 КГц
Битовая глубина : 16 бит
Метод сжатия : С потерями
Размер потока : 148 Мбайт (4%)
Заголовок : AC3 2.0ch 192kbps - многоголосый (ОРТ)
Язык : Russian
Default : Да
Forced : Нет
Аудио #2
Идентификатор : 3
Формат : AC-3
Формат/Информация : Audio Coding 3
Расширение режима : CM (complete main)
Параметр Endianness формата : Big
Идентификатор кодека : A_AC3
Продолжительность : 1 ч. 48 м.
Вид битрейта : Постоянный
Битрейт : 192 Кбит/сек
Каналы : 2 канала
Расположение каналов : Front: L R
Частота : 48,0 КГц
Битовая глубина : 16 бит
Метод сжатия : С потерями
Размер потока : 148 Мбайт (4%)
Заголовок : AC3 2.0ch mono 192kbps -дубляж + ПМ ("СВ-Дубль")
Язык : Russian
Default : Нет
Forced : Нет
Аудио #3
Идентификатор : 4
Формат : AC-3
Формат/Информация : Audio Coding 3
Расширение режима : CM (complete main)
Параметр Endianness формата : Big
Идентификатор кодека : A_AC3
Продолжительность : 1 ч. 48 м.
Вид битрейта : Постоянный
Битрейт : 192 Кбит/сек
Каналы : 2 канала
Расположение каналов : Front: L R
Частота : 48,0 КГц
Битовая глубина : 16 бит
Метод сжатия : С потерями
Размер потока : 148 Мбайт (4%)
Заголовок : AC3 2.0ch 192kbps - одноголосый (Михалёв)
Язык : Russian
Default : Нет
Forced : Нет
Аудио #4
Идентификатор : 5
Формат : AC-3
Формат/Информация : Audio Coding 3
Расширение режима : CM (complete main)
Параметр Endianness формата : Big
Идентификатор кодека : A_AC3
Продолжительность : 1 ч. 48 м.
Вид битрейта : Постоянный
Битрейт : 192 Кбит/сек
Каналы : 2 канала
Расположение каналов : Front: L R
Частота : 48,0 КГц
Битовая глубина : 16 бит
Метод сжатия : С потерями
Размер потока : 148 Мбайт (4%)
Заголовок : AC3 2.0ch 192kbps - одноголосый (Гаврилов)
Язык : Russian
Default : Нет
Forced : Нет
Аудио #5
Идентификатор : 6
Формат : AAC
Формат/Информация : Advanced Audio Codec
Профиль формата : LC
Идентификатор кодека : A_AAC
Продолжительность : 1 ч. 48 м.
Каналы : 2 канала
Расположение каналов : Front: L R
Частота : 48,0 КГц
Метод сжатия : С потерями
Заголовок : AAC (LC) 2.0ch ~162kbps - original
Язык : English
Default : Нет
Forced : Нет
Текст #1
Идентификатор : 7
Формат : UTF-8
Идентификатор кодека : S_TEXT/UTF8
Идентификатор кодека/Информация : UTF-8 Plain Text
Язык : English
Default : Нет
Forced : Нет
Текст #2
Идентификатор : 8
Формат : UTF-8
Идентификатор кодека : S_TEXT/UTF8
Идентификатор кодека/Информация : UTF-8 Plain Text
Заголовок : SDH (Closed Caption)
Язык : English
Default : Нет
Forced : Нет
Меню
00:00:00.000 : en:Opening Titles / World Series Tickets
00:09:27.000 : en:Canceled Plans
00:19:14.000 : en:Filofax
00:30:10.000 : en:A Very Important Meeting
00:40:39.000 : en:The Real Spencer Barnes
00:55:18.000 : en:Honesty Is The Key To Success
01:01:58.000 : en:Dinner Date
01:11:41.000 : en:Who Are You?
01:19:31.000 : en:The World Series
01:28:47.000 : en:On The Run
01:33:47.000 : en:Breaking Back In
01:42:56.000 : en:A Great Team / End Credits

-

Скриншот с названием фильма

Скачать

Скачать торрент!

Как скачивать? · Что такое торрент? · Рейтинг и ограничения

Сайт не распространяет и не хранит электронные версии произведений, а лишь предоставляет доступ к создаваемому пользователями каталогу ссылок на торрент-файлы, которые содержат только списки хеш-сумм

[Профиль] [ЛС]
Показать сообщения:    
Ответить на тему

Текущее время: Сегодня 22:00

Часовой пояс: GMT + 4



Вы не можете начинать темы
Вы не можете отвечать на сообщения
Вы не можете редактировать свои сообщения
Вы не можете удалять свои сообщения
Вы не можете голосовать в опросах
Вы не можете прикреплять файлы к сообщениям
Вы не можете скачивать файлы