Рандом / The Random (Павел Кхвалеев ) [2013, Россия, драма, мистика, музыка, WEB-DLRip]

Ответить на тему
 
Автор Сообщение

user ®

Стаж: 7 лет 7 месяцев

Сообщений: 20008

Пост Пост: #1 от 24-Дек-2013 11:30

[Цитировать]

РандомThe Random- Страна: Россия
Жанр: Драма, мистика, музыка
Год выпуска: 2013
Продолжительность: 01:28:27-Режиссер: Павел Кхвалеев
В ролях: Игорь Преображенский, Авис Вокс, Екатерина Сиротина, Блэкфилл Вайт, Павел Кхвалеев, Евгений Чрамов-Описание: Девушка из другого измерения использует таинственную функцию «РАНДОМ» для материализации в нашем мире и выполнения определенной миссии. Ей неизвестна цель, ее ведет только интуиция и 100%-ное доверие Игре. На своем пути в город она встречает разных людей – тех, кому должна помочь. И тех, с кем лучше не встречаться... Беременная девушка, обладающая удивительным даром. Страховой агент, исследующий свою темную сторону. Женщина-полицейский, танцующая фламенко. Мужчина, пытающийся разыскать дочь, брошенную им 20 лет назад... Их роли тоже неслучайны - в этой сложной игре с названием «РАНДОМ».- -Качество: WEB-DLRip
Контейнер: AVI
Видео: XviD, 720x304 (2.35:1), 1818 kbps, 23,976 fps, 0,347 bpp
Аудио: AC3 / 5.1 / 48 kHz / 384 kbps / 16 bit-

Media Info

General
Complete name : D:\The.Random.2013.O.WEB-DLRip_1400Mb.avi
Format : AVI
Format/Info : Audio Video Interleave
File size : 1.37 GiB
Duration : 1h 28mn
Overall bit rate : 2 212 Kbps
Writing application : VirtualDubMod 1.5.10.3 (build 2550/release)
Writing library : VirtualDubMod build 2550/release
Video
ID : 0
Format : MPEG-4 Visual
Format profile : Advanced Simple@L5
Format settings, BVOP : 2
Format settings, QPel : No
Format settings, GMC : No warppoints
Format settings, Matrix : Custom
Codec ID : XVID
Codec ID/Hint : XviD
Duration : 1h 28mn
Bit rate : 1 819 Kbps
Width : 720 pixels
Height : 304 pixels
Display aspect ratio : 2.35:1
Frame rate : 23.976 fps
Color space : YUV
Chroma subsampling : 4:2:0
Bit depth : 8 bits
Scan type : Progressive
Compression mode : Lossy
Bits/(Pixel*Frame) : 0.347
Stream size : 1.12 GiB (82%)
Writing library : XviD 1.2.1 (UTC 2008-12-04)
Audio
ID : 1
Format : AC-3
Format/Info : Audio Coding 3
Mode extension : CM (complete main)
Codec ID : 2000
Duration : 1h 28mn
Bit rate mode : Constant
Bit rate : 384 Kbps
Channel(s) : 6 channels
Channel positions : Front: L C R, Side: L R, LFE
Sampling rate : 48.0 KHz
Bit depth : 16 bits
Compression mode : Lossy
Stream size : 243 MiB (17%)
Alignment : Split accross interleaves
Interleave, duration : 42 ms (1.00 video frame)
Interleave, preload duration : 500 ms

Скриншот с названием фильма

Скриншоты

Скачать

Скачать торрент!

Как скачивать? · Что такое торрент? · Рейтинг и ограничения

Сайт не распространяет и не хранит электронные версии произведений, а лишь предоставляет доступ к создаваемому пользователями каталогу ссылок на торрент-файлы, которые содержат только списки хеш-сумм

[Профиль] [ЛС]
Показать сообщения:    
Ответить на тему

Текущее время: Сегодня 08:04

Часовой пояс: GMT + 4



Вы не можете начинать темы
Вы не можете отвечать на сообщения
Вы не можете редактировать свои сообщения
Вы не можете удалять свои сообщения
Вы не можете голосовать в опросах
Вы не можете прикреплять файлы к сообщениям
Вы не можете скачивать файлы