Безымянный гангстер / Bumchoiwaui Junjaeng (Юн Чжон Бин / Yoon Jong Bin) [2011, Корея Южная, триллер, криминал, HDRip] MVO

Ответить на тему
 
Автор Сообщение

user ®

Стаж: 11 лет

Сообщений: 15151

Пост Пост: #1 от 24-Дек-2013 03:20

[Цитировать]

Безымянный гангстер / Bumchoiwaui Junjaeng
Страна: Корея Южная
Жанр: триллер, криминал
Год выпуска: 2012
Продолжительность: 02:13:49
Перевод: Профессиональный (многоголосый закадровый) [НТВ+]
Cубтитры: нет
Режиссер: Юн Чжон Бин / Yoon Jong Bin
В ролях: Чхве Мин Сик, Ха Чон У, Сон Бён Вук, Ким Чон Гу, Квон Се Ин
Описание: Когда Чхве Ик Хена уже намереваются уволить за все его махинации на таможне с отгрузками и транспортировкой метамфетамина его жизнь принимает крутой поворот. Узнав о махинациях Чхве Ик Хена, местный глава города предлагает ему общий бизнес в обмен на сохранение должности и немалых денег. Начав переговоры Чхве Ик Хен и Чхве Хён Пэ выясняют, что они дальние родственники, что еще больше их сближает..
Доп. информация: IMDB:7.20 , КиноПоиск:7.11
Сэмпл: http://multi-up.com/935141
Качество видео: HDRip
Формат видео: AVI
Видео: 720x384,23.976 fps,XviD build 50,1363 kbps avg,0.20 bit/pixel
Аудио: 48 kHz,AC3 Dolby Digital,2/0 (L,R) ch,192 kbps

MediaInfo

Общее
Полное имя : D:\Filmi\Bezymyannyj.ganster.2012.P.HDRip.1.46Gb.avi
Формат : AVI
Формат/Информация : Audio Video Interleave
Размер файла : 1,46 Гбайт
Продолжительность : 2 ч. 13 м.
Общий поток : 1565 Кбит/сек
Программа кодирования : VirtualDubMod 1.5.10.2 (build 2540/release)
Библиотека кодирования : VirtualDubMod build 2540/release
Видео
Идентификатор : 0
Формат : MPEG-4 Visual
Профиль формата : Advanced Simple@L5
Параметр BVOP формата : 2
Параметр QPel формата : Нет
Параметр GMC формата : Без точки перехода
Параметр матрицы формата : Default (MPEG)
Идентификатор кодека : XVID
Идентификатор кодека/Подсказка : XviD
Продолжительность : 2 ч. 13 м.
Битрейт : 1364 Кбит/сек
Ширина : 720 пикселей
Высота : 384 пикселя
Соотношение сторон : 1,85:1
Частота кадров : 23,976 кадра/сек
Цветовое пространство : YUV
Субдискретизация насыщенности : 4:2:0
Битовая глубина : 8 бит
Тип развёртки : Прогрессивная
Бит/(Пиксели*Кадры) : 0.206
Размер потока : 1,27 Гбайт (87%)
Библиотека кодирования : XviD 1.2.1 (UTC 2008-12-04)
Аудио
Идентификатор : 1
Формат : AC-3
Формат/Информация : Audio Coding 3
Расширение режима : CM (complete main)
Параметр Endianness формата : Big
Идентификатор кодека : 2000
Продолжительность : 2 ч. 13 м.
Вид битрейта : Постоянный
Битрейт : 192 Кбит/сек
Каналы : 2 канала
Расположение каналов : Front: L R
Частота : 48,0 КГц
Битовая глубина : 16 бит
Размер потока : 184 Мбайт (12%)
Выравнивание : Разделение по промежуткам
Продолжительность промежутка : 42 мс. (1,00 видеокадр)
Время предзагрузки промежутка : 500 мс.

Скриншот c названием фильма

Скриншоты

Скачать

Скачать торрент! Безымянный гангстер / Bumchoiwaui Junjaeng (Юн Чжон Бин / Yoon Jong Bin) [2011, Корея Южная, триллер, криминал, HDRip] MVO

Как скачивать? · Что такое торрент? · Рейтинг и ограничения

Сайт не распространяет и не хранит электронные версии произведений, а лишь предоставляет доступ к создаваемому пользователями каталогу ссылок на торрент-файлы, которые содержат только списки хеш-сумм

[Профиль] [ЛС]
Показать сообщения:    
Ответить на тему

Текущее время: Сегодня 06:13

Часовой пояс: GMT + 4



Вы не можете начинать темы
Вы не можете отвечать на сообщения
Вы не можете редактировать свои сообщения
Вы не можете удалять свои сообщения
Вы не можете голосовать в опросах
Вы не можете прикреплять файлы к сообщениям
Вы не можете скачивать файлы