Диана: История любви / Diana (Оливер Хиршбигель / Oliver Hirschbiegel) [2013, Великобритания, Франция, Швеция, Бельгия, драма, мелодрама, биография, DVDScr] VO

Ответить на тему
 
Автор Сообщение

user ®

Стаж: 7 лет 7 месяцев

Сообщений: 20008

Пост Пост: #1 от 24-Дек-2013 03:20

[Цитировать]

Диана: История любвиDiana«Принцесса, покорившая сердца миллионов. Кого любила она сама?»- Страна: Великобритания, Франция, Швеция, Бельгия
Жанр: драма, мелодрама, биография
Год выпуска: 2013
Продолжительность: 01:47:57-Перевод: Одноголосый закадровый
Субтитры: вшитые арабские субтитры
Режиссер: Оливер Хиршбигель / Oliver Hirschbiegel
В ролях: Наоми Уоттс, Навин Эндрюс, Дуглас Ходж, Джеральдин Джеймс, Чарльз Эдвардс, Дэниэл Пайрри, Кэс Анвар, Джульет Стивенсон, Джонатан Керриган, Лоуренс Белчер, Гарри Холлэнд, Лианда Редди-Описание: Принцесса Диана - самая популярная женщина своего времени, еще при жизни названная «принцессой людских сердец». Она покорила сердца миллионов, ей признавались в любви все - от принца Англии до могущественных миллиардеров... Но кого любила она сама?
Через несколько лет после расставания с принцем Чарльзом леди Диана почти забывает о личной жизни и посвящает себя общественной деятельности. Ее график заполнен до предела, встречи и мероприятия идут нескончаемой чередой, пока, посещая одну из лондонских больниц, она случайно знакомится с 36-летним кардиохирургом. Так начинается роман, ставший по свидетельству многих друзей Дианы «любовью всей ее жизни». Официальные аудиенции в Кенсингтонском дворце и тайные свидания в ночных клубах, радость коротких встреч и боль расставаний, желание всегда быть вместе и стремление избежать огласки...-


MPAA: PG-13 - Детям до 13 лет просмотр не желателен-

Доп. Информация

Сценарий: Стивен Джеффрис / Stephen Jeffreys, Кейт Снелл / Kate Snell
Продюсер: Роберт Бернштейн / Robert Bernstein, Дуглас Рэй / Douglas Rae, Уолтер Эйрс / Walter Ayres, Кейт Снелл / Kate Snell, Шон Уилан / Sean Wheelan
Оператор: Райнер Клаусманн / Rainer Klausmann
Композитор: Кифус Чьянчья / Keefus Ciancia, Дэвид Холмс / David Holmes
Сборы в США: $335 359
Сборы в России: $588 142
Сборы в мире: $7 519 661
Мировая премьера: 5 сентября 2013
Релиз на DVD: 30 января 2014,
«CP Дистрибуция»

Релиз на Blu-ray: 30 января 2014,
«CP Дистрибуция»
-Качество: DVDScr
Контейнер: AVI
Видео: XviD, 720x384 (1.875), 1613 kbps, 23,976 fps, 0,243 bpp
Аудио: AC3 / 2.0 / 48 kHz / 192 kbps / 16 bit-

Знаете ли Вы, что...

  • Ювелирный бренд Chopard официально представил коллекцию ювелирных изделий, которые были использованы во время съемок фильма. Изделия практически точно воссоздают знаковые украшения, в которых принцесса Диана появлялась на важных мероприятиях.
  • Постеры к фильму были случайно размещены на площади Альма в Париже, недалеко от входа в туннель, где принцесса погибла в автокатастрофе в 1997 году. Размещение плаката вызвало бурю негодования среди общественности, и в конечном итоге они были убраны по просьбе французского дистрибьютора Le Pacte.
  • Джессика Честейн могла исполнить роль принцессы Дианы, но покинула проект из-за несогласованности расписания съемок.
  • Во время миссии Красного Креста в 1996 году Диану везут на автомобиле Land Cruiser 100 вышедшему в 1998 году. Так же в одной сцене виден Range Rover Sport выпущенный в 2005 году.

Media Info

General
Complete name : G:\Diana.2013.L1.SCR_1400MB.avi
Format : AVI
Format/Info : Audio Video Interleave
File size : 1.37 GiB
Duration : 1h 47mn
Overall bit rate : 1 815 Kbps
Writing application : VirtualDubMod 1.5.10.2 (build 2540/release)
Writing library : VirtualDubMod build 2540/release
Video
ID : 0
Format : MPEG-4 Visual
Format profile : Advanced Simple@L5
Format settings, BVOP : 2
Format settings, QPel : No
Format settings, GMC : No warppoints
Format settings, Matrix : Default (MPEG)
Codec ID : XVID
Codec ID/Hint : XviD
Duration : 1h 47mn
Bit rate : 1 614 Kbps
Width : 720 pixels
Height : 384 pixels
Display aspect ratio : 1.875
Frame rate : 23.976 fps
Color space : YUV
Chroma subsampling : 4:2:0
Bit depth : 8 bits
Scan type : Progressive
Compression mode : Lossy
Bits/(Pixel*Frame) : 0.243
Stream size : 1.22 GiB (89%)
Writing library : XviD 73
Audio
ID : 1
Format : AC-3
Format/Info : Audio Coding 3
Mode extension : CM (complete main)
Codec ID : 2000
Duration : 1h 47mn
Bit rate mode : Constant
Bit rate : 192 Kbps
Channel(s) : 2 channels
Channel positions : Front: L R
Sampling rate : 48.0 KHz
Bit depth : 16 bits
Compression mode : Lossy
Stream size : 148 MiB (11%)
Alignment : Split accross interleaves
Interleave, duration : 42 ms (1.00 video frame)
Interleave, preload duration : 500 ms

Скриншот с названием фильма

Скриншоты

Скачать

Скачать торрент!

Как скачивать? · Что такое торрент? · Рейтинг и ограничения

Сайт не распространяет и не хранит электронные версии произведений, а лишь предоставляет доступ к создаваемому пользователями каталогу ссылок на торрент-файлы, которые содержат только списки хеш-сумм

[Профиль] [ЛС]
Показать сообщения:    
Ответить на тему

Текущее время: Сегодня 10:05

Часовой пояс: GMT + 4



Вы не можете начинать темы
Вы не можете отвечать на сообщения
Вы не можете редактировать свои сообщения
Вы не можете удалять свои сообщения
Вы не можете голосовать в опросах
Вы не можете прикреплять файлы к сообщениям
Вы не можете скачивать файлы