Люди-тени / Дверь / Shadow people / The Door (Мэттью Арнольд / Matthew Arnold) [2013 г., США, мистика, триллер, HDRip] MVO + VO (den904) + Original (eng) + Sub (rus)

Ответить на тему
 
Автор Сообщение

user ®

Стаж: 7 лет 7 месяцев

Сообщений: 20008

Пост Пост: #1 от 24-Дек-2013 03:20

[Цитировать]

-Люди-тени / Дверь / Shadow people / The Door--Год выпуска: 2013
Страна: США
Жанр: мистика, триллер-Продолжительность: 01:28:56
Перевод № 1: Профессиональный (многоголосый закадровый)
Перевод № 2: Одноголосый закадровый [den904] - перевод на русский язык - [А. Кедров] (отдельной звуковой дорожкой)
Субтитры: есть (русские) [.srt]
Оригинальная дорожка: английская--Режиссер: Мэттью Арнольд / Matthew Arnold--В ролях:
Даллас Робертс, Элисон Иствуд, Энн Дудек, Мария Боннер, Мэтти Липтак, Кристофер Берри, Джонатан Барон, Тони Шина, Ричи Монтгомери, Марко Ст. Джон
--Описание:
Ведущий радиошоу Чарли Кроу узнает в прямом эфире от одного из радиослушателей о неких Людях Теней, которые преследуют своих жертв и стали причиной уже многих смертей. Чарли берется расследовать так называемые «встречи» с таинственными созданиями и вскоре сам начинает ИХ видеть…-Фильм основан на реальном случае загадочных смертей и вирусном ролике "Изучение сна GR16-1971"
Фильм содержит документальные съёмки и интервью с реальными людьми.
--Доп. информация:- - Сэмпл Рип совместим с бытовыми DVD-проигрывателями.--Качество видео: HDRip
Формат видео: AVI
Видео: XviD 73; 704 х 288 (2.44:1); 1 718 kbps; 23.976 fps; 0.353 bpp
Аудио № 1: AC3; 48.0 KHz; 224 Kbps; CBR; 2 ch (MVO)
Аудио № 2: AC3; 48.0 KHz; 384 Kbps; CBR; 6 ch (Eng)
==================Отдельно==================
Аудио № 3: AC3; 48.0 KHz; 384 Kbps; CBR; 6 ch (VO)
Субтитры: русские [.srt]; кодировка ANSI-

Скриншоты

Скриншот с названием


MediaInfo

General
Complete name : \Люди-тени\Ludi-teny_(2013)\Ludi-teny_(2013).HDRip.XviD.ac3_[All.Films][RG].avi
Format : AVI
Format/Info : Audio Video Interleave
File size : 1.45 GiB
Duration : 1h 28mn
Overall bit rate : 2 340 Kbps
Movie name : Люди-тени / Дверь / Shadow people / The Door (2013) HDRip MVO [All.Films][RG]
Director : /
Writing application : VirtualDubMod 1.5.10.3 | www.virtualdub-fr.org || (build 2550/release)
Video
ID : 0
Format : MPEG-4 Visual
Format profile : Advanced Simple@L5
Format settings, BVOP : 1
Format settings, QPel : No
Format settings, GMC : No warppoints
Format settings, Matrix : Custom
Codec ID : XVID
Codec ID/Hint : XviD
Duration : 1h 28mn
Bit rate : 1 718 Kbps
Width : 704 pixels
Height : 288 pixels
Display aspect ratio : 2.40:1
Frame rate : 23.976 fps
Color space : YUV
Chroma subsampling : 4:2:0
Bit depth : 8 bits
Scan type : Progressive
Compression mode : Lossy
Bits/(Pixel*Frame) : 0.353
Stream size : 1.07 GiB (73%)
Writing library : XviD 73
Audio #1
ID : 1
Format : AC-3
Format/Info : Audio Coding 3
Mode extension : CM (complete main)
Format settings, Endianness : Big
Codec ID : 2000
Duration : 1h 28mn
Bit rate mode : Constant
Bit rate : 224 Kbps
Channel count : 2 channels
Channel positions : Front: L R
Sampling rate : 48.0 KHz
Bit depth : 16 bits
Compression mode : Lossy
Stream size : 142 MiB (10%)
Alignment : Split accross interleaves
Interleave, duration : 42 ms (1.00 video frame)
Interleave, preload duration : 500 ms
Audio #2
ID : 2
Format : AC-3
Format/Info : Audio Coding 3
Mode extension : CM (complete main)
Format settings, Endianness : Big
Codec ID : 2000
Duration : 1h 28mn
Bit rate mode : Constant
Bit rate : 384 Kbps
Channel count : 6 channels
Channel positions : Front: L C R, Side: L R, LFE
Sampling rate : 48.0 KHz
Bit depth : 16 bits
Compression mode : Lossy
Stream size : 244 MiB (16%)
Alignment : Split accross interleaves
Interleave, duration : 42 ms (1.00 video frame)
Interleave, preload duration : 500 ms
Скачать

Скачать торрент!

Как скачивать? · Что такое торрент? · Рейтинг и ограничения

Сайт не распространяет и не хранит электронные версии произведений, а лишь предоставляет доступ к создаваемому пользователями каталогу ссылок на торрент-файлы, которые содержат только списки хеш-сумм

[Профиль] [ЛС]
Показать сообщения:    
Ответить на тему

Текущее время: Сегодня 16:43

Часовой пояс: GMT + 4



Вы не можете начинать темы
Вы не можете отвечать на сообщения
Вы не можете редактировать свои сообщения
Вы не можете удалять свои сообщения
Вы не можете голосовать в опросах
Вы не можете прикреплять файлы к сообщениям
Вы не можете скачивать файлы