Клуб CBGB / CBGB (Рэндолл Миллер / Randall Miller) [2013, США, Драма, музыка, HDRip] Original Eng + Sub Rus

Ответить на тему
 
Автор Сообщение

user ®

Стаж: 7 лет 7 месяцев

Сообщений: 20008

Пост Пост: #1 от 24-Дек-2013 00:10

[Цитировать]

Клуб CBGB / CBGB
Страна: США
Жанр: Драма, музыка
Год выпуска: 2013
Продолжительность: 01:42
Перевод: Субтитры (HinoJaySimpson)
Cубтитры: русские
Оригинальная аудиодорожка: английский
Режиссер: Рэндолл Миллер / Randall Miller
В ролях: Алан Рикман, Донал Лог, Эшли Грин, Фредди Родригес
Описание: Фильм рассказывает историю человека по имени Хилли Кристал,
его клубе "CBGB" и о возникновении панк-рока в Америке.
Сэмпл
Качество видео: HDRip
Формат видео: AVI
Видео: XVID, 720x300, 2.40:1, 59.940 fps, 1 591 Kbps
Аудио: AC-3, 32 ms, 384 Kbps, 2 channels
Формат субтитров: softsub (SRT)

MediaInfo

General
Format : AVI
Format/Info : Audio Video Interleave
Format profile : OpenDML
File size : 1.43 GiB
Duration : 1h 42mn
Overall bit rate : 1 995 Kbps
Movie name : www.RARBG.com
Writing application : Lavf55.14.101
Video
ID : 0
Format : MPEG-4 Visual
Format profile : Advanced Simple@L5
Format settings, BVOP : Yes
Format settings, QPel : No
Format settings, GMC : No warppoints
Format settings, Matrix : Default (H.263)
Codec ID : XVID
Codec ID/Hint : XviD
Duration : 1h 42mn
Bit rate : 1 591 Kbps
Width : 720 pixels
Height : 300 pixels
Display aspect ratio : 2.40:1
Frame rate : 59.940 fps
Resolution : 8 bits
Colorimetry : 4:2:0
Scan type : Progressive
Bits/(Pixel*Frame) : 0.123
Stream size : 1.14 GiB (80%)
Writing library : XviD 64
Audio
ID : 1
Format : AC-3
Format/Info : Audio Coding 3
Codec ID : 2000
Duration : 1h 42mn
Bit rate mode : Constant
Bit rate : 384 Kbps
Channel(s) : 2 channels
Channel positions : L R
Sampling rate : 48.0 KHz
Resolution : 16 bits
Stream size : 281 MiB (19%)
Alignment : Aligned on interleaves
Interleave, duration : 32 ms (1.92 video frames)

Скриншот c названием фильма

Скриншоты

Пример субтитров

58
00:04:42,383 --> 00:04:43,882
Украли?
59
00:04:43,884 --> 00:04:45,384
Берта, никто не ворует у бедных
60
00:04:45,386 --> 00:04:47,686
- Че?
- Хилли пропал.
61
00:04:47,688 --> 00:04:50,422
Заводи машину.
62
00:04:50,424 --> 00:04:52,924
Давай, давай, бегом!
63
00:05:03,504 --> 00:05:05,871
Как он попал сюда?
64
00:05:05,873 --> 00:05:07,839
Наверное дошел?
65
00:05:07,841 --> 00:05:10,008
Три мили?
66
00:05:10,010 --> 00:05:13,045
Две с половиной.
67
00:05:13,047 --> 00:05:16,081
Это не нормально.
68
00:05:16,083 --> 00:05:17,616
Хиллел Кристал.
69
00:05:17,618 --> 00:05:21,920
Вы проживаете на 21-й ист и 2-ой?
70
00:05:25,224 --> 00:05:28,260
И каково ваше семейное
положение м-р. Кристал?
71
00:05:28,262 --> 00:05:30,028
Мы с женой расстались.
72
00:05:30,030 --> 00:05:31,797
Расстались или разведены?
73
00:05:31,799 --> 00:05:33,732
Разведены, ага.
74
00:05:33,734 --> 00:05:35,000
Дети?
75
00:05:35,002 --> 00:05:36,568
Двое.
76
00:05:36,570 --> 00:05:40,439
И это ваша... вторая
неудачная попытка открыть бар.
77
00:05:40,441 --> 00:05:43,775
Клуб.
78
00:05:43,777 --> 00:05:47,813
Разведен и дважды банкрот.
79
00:05:47,815 --> 00:05:50,148
Возможно, вам стоит
попробовать что-то другое

Саундтрек

1. "Life During Wartime" - Talking Heads
2. "Kick Out The Jams" (Uncensored Version) - MC5
3. "Chatterbox" - New York Dolls
4. "Careful" - Television
5. "Blank Generation" - Richard Hell and the Voidoids
6. "Slow Death" - Flamin' Groovies
7. "I Can't Stand It" - The Velvet Underground
8. "Out Of Control (the featured track from the album)" - Wayne County & the Electric Chairs
9. "Psychotic Reaction" - Count Five
10. "All For The Love Of Rock 'n' Roll" - Tuff Darts
11. "All By Myself" - The Heartbreakers
12. "California Sun" (Original DEMO) - The Dictators
13. "Caught With The Meat In Your Mouth" - Dead Boys
14. "I Got Knocked Down (But I'll Get Up)" - Joey Ramone
15. "Get Outta My Way" - The Laughing Dogs
16. "Sunday Girl" (2013 Version) - Blondie
17. "I Wanna Be Your Dog" - The Stooges
18. "Sonic Reducer" - Dead Boys
19. "Roxanne" - The Police
20. "Birds And The Bees" - Hilly Kristal
Скачать

Скачать торрент!

Как скачивать? · Что такое торрент? · Рейтинг и ограничения

Сайт не распространяет и не хранит электронные версии произведений, а лишь предоставляет доступ к создаваемому пользователями каталогу ссылок на торрент-файлы, которые содержат только списки хеш-сумм

[Профиль] [ЛС]
Показать сообщения:    
Ответить на тему

Текущее время: Сегодня 10:10

Часовой пояс: GMT + 4



Вы не можете начинать темы
Вы не можете отвечать на сообщения
Вы не можете редактировать свои сообщения
Вы не можете удалять свои сообщения
Вы не можете голосовать в опросах
Вы не можете прикреплять файлы к сообщениям
Вы не можете скачивать файлы