Любовь без пересадок / Amour & turbulences (Александр Кастаньетти / Alexander Castagnetti) [2013, Франция, мелодрама, комедия, HDRip] Dub

Ответить на тему
 
Автор Сообщение

user ®

Стаж: 7 лет 7 месяцев

Сообщений: 20008

Пост Пост: #1 от 23-Дек-2013 09:10

[Цитировать]

Любовь без пересадок / Amour & turbulences
Страна: Франция
Жанр: мелодрама, комедия
Год выпуска: 2013
Продолжительность: 01:37:08
Перевод: Профессиональный (дублированный) [iTunes]
Cубтитры: нет
Режиссер: Александр Кастаньетти / Alexander Castagnetti
В ролях: Людивин Санье, Николя Бедо, Джонатан Коэн, Арно Дюкре, Бриджитт Катийон, Жакки Берруайе, Клементин Селарье, Мишель Вюйермоз, Лила Сале, Ина Кастаньетти
Описание: Преуспевающий адвокат Антуан никогда не знал недостатка в женском внимании. Отправляясь по делам из Нью-Йорка в Париж, в самолете он оказывается в соседнем кресле с бывшей подругой Джули. Обреченные провести вместе семь долгих часов бывшие любовники успевают вспомнить былые обиды, все неприятности, доставленные друг другу, и понять, что их разрыв был ошибкой. Но успеют ли они эту ошибку исправить?
Доп. информация:
Сэмпл: http://multi-up.com/934857
Качество видео: HDRip
Формат видео: AVI
Видео: 720x304,23.976 fps,XviD build 50,1752 kbps avg,0.33 bit/pixel
Аудио: 48 kHz,AC3 Dolby Digital,3/2 (L,C,R,l,r) + LFE ch,384 kbps

MediaInfo

Общее
Полное имя : D:\Filmi\Lubov.bez.peresadok.2013.D.HDRip.avi
Формат : AVI
Формат/Информация : Audio Video Interleave
Размер файла : 1,46 Гбайт
Продолжительность : 1 ч. 37 м.
Общий поток : 2146 Кбит/сек
Программа кодирования : VirtualDubMod 1.5.10.3 | (build 2550/release)
Библиотека кодирования : VirtualDubMod build 2550/release
Видео
Идентификатор : 0
Формат : MPEG-4 Visual
Профиль формата : Advanced Simple@L5
Параметр BVOP формата : 2
Параметр QPel формата : Нет
Параметр GMC формата : Без точки перехода
Параметр матрицы формата : Выборочная
Идентификатор кодека : XVID
Идентификатор кодека/Подсказка : XviD
Продолжительность : 1 ч. 37 м.
Битрейт : 1753 Кбит/сек
Ширина : 720 пикселей
Высота : 304 пикселя
Соотношение сторон : 2,35:1
Частота кадров : 23,976 кадра/сек
Цветовое пространство : YUV
Субдискретизация насыщенности : 4:2:0
Битовая глубина : 8 бит
Тип развёртки : Прогрессивная
Бит/(Пиксели*Кадры) : 0.334
Размер потока : 1,19 Гбайт (82%)
Библиотека кодирования : XviD 1.2.1 (UTC 2008-12-04)
Аудио
Идентификатор : 1
Формат : AC-3
Формат/Информация : Audio Coding 3
Расширение режима : CM (complete main)
Параметр Endianness формата : Big
Идентификатор кодека : 2000
Продолжительность : 1 ч. 37 м.
Вид битрейта : Постоянный
Битрейт : 384 Кбит/сек
Каналы : 6 каналов
Расположение каналов : Front: L C R, Side: L R, LFE
Частота : 48,0 КГц
Битовая глубина : 16 бит
Размер потока : 267 Мбайт (18%)
Выравнивание : Разделение по промежуткам
Продолжительность промежутка : 42 мс. (1,00 видеокадр)
Время предзагрузки промежутка : 500 мс.

Скриншот c названием фильма

Скриншоты

Скачать

Скачать торрент!

Как скачивать? · Что такое торрент? · Рейтинг и ограничения

Сайт не распространяет и не хранит электронные версии произведений, а лишь предоставляет доступ к создаваемому пользователями каталогу ссылок на торрент-файлы, которые содержат только списки хеш-сумм

[Профиль] [ЛС]
Показать сообщения:    
Ответить на тему

Текущее время: Сегодня 21:39

Часовой пояс: GMT + 4



Вы не можете начинать темы
Вы не можете отвечать на сообщения
Вы не можете редактировать свои сообщения
Вы не можете удалять свои сообщения
Вы не можете голосовать в опросах
Вы не можете прикреплять файлы к сообщениям
Вы не можете скачивать файлы