ЗЛО 2 / V/H/S/2 (Саймон Баррет / Simon Barret, Джейсон Айзенер / Jason Ayzener, Гарет Эванс / Gareth Evan) [2013, США, Канада, Индонезия, Ужасы,Триллер, HDRip] Dub

Ответить на тему
 
Автор Сообщение

user ®

Стаж: 7 лет 7 месяцев

Сообщений: 20008

Пост Пост: #1 от 23-Дек-2013 09:10

[Цитировать]

ЗЛО 2 / V/H/S/2
Страна: США, Канада, Индонезия
Жанр: Ужасы,Триллер
Год выпуска: 2013
Продолжительность: 01:35:42
Перевод: Профессиональный (дублированный) [лицензия]
Cубтитры: нет
Режиссер: Саймон Баррет, Джейсон Айзенер, Гарет Эванс / Simon Barret, Jason Ayzener, Gareth Evan
В ролях: Келси Эбботт, Ханна Аль, Рашид Фахри, Албар Ока, Антара Девон, Мари Берт, Саманта Грейси, Коллинз Холт, Ханна Хьюз, Кевин Хант, Эпи Куснандар и др.
Описание: Молодой студент исчезает при загадочных обстоятельствах. Его мать бьет тревогу, однако полиция не торопится с поисками, полагая, что тот просто загулял. Тогда она нанимает частного детектива, который вместе с помощницей начинает поиски. Первое же место, куда они направляются — дом, где он жил. Снаружи детективы не обнаруживают ничего подозрительного, но забравшись внутрь, они находят странную коллекцию любительских видеокассет. Не осознавая всю опасность, они включают одну из кассет, тем самым вызывая к жизни дьявольские силы из другого мира.
Доп. информация: IMDB:6.10
Сэмпл: http://multi-up.com/934875
Качество видео: HDRip
Формат видео: AVI
Видео: 720x400,23.976 fps,XviD build 50,1915 kbps avg,0.28 bit/pixel
Аудио: 48 kHz,AC3 Dolby Digital,3/2 (L,C,R,l,r) + LFE ch,256 kbps

MediaInfo

Общее
Полное имя : D:\Filmi\ZL0.2.2013.D.HDRip.avi
Формат : AVI
Формат/Информация : Audio Video Interleave
Размер файла : 1,46 Гбайт
Продолжительность : 1 ч. 35 м.
Общий поток : 2181 Кбит/сек
Программа кодирования : VirtualDubMod 1.5.10.2 (build 2540/release)
Библиотека кодирования : VirtualDubMod build 2540/release
Видео
Идентификатор : 0
Формат : MPEG-4 Visual
Профиль формата : Advanced Simple@L5
Параметр BVOP формата : 2
Параметр QPel формата : Нет
Параметр GMC формата : Без точки перехода
Параметр матрицы формата : Default (MPEG)
Идентификатор кодека : XVID
Идентификатор кодека/Подсказка : XviD
Продолжительность : 1 ч. 35 м.
Битрейт : 1916 Кбит/сек
Ширина : 720 пикселей
Высота : 400 пикселей
Соотношение сторон : 16:9
Частота кадров : 23,976 кадра/сек
Цветовое пространство : YUV
Субдискретизация насыщенности : 4:2:0
Битовая глубина : 8 бит
Тип развёртки : Прогрессивная\
Бит/(Пиксели*Кадры) : 0.277
Размер потока : 1,28 Гбайт (88%)
Библиотека кодирования : XviD 1.2.1 (UTC 2008-12-04)
Аудио
Идентификатор : 1
Формат : AC-3
Формат/Информация : Audio Coding 3
Расширение режима : CM (complete main)
Параметр Endianness формата : Big
Идентификатор кодека : 2000
Продолжительность : 1 ч. 35 м.
Вид битрейта : Постоянный
Битрейт : 256 Кбит/сек
Каналы : 6 каналов
Расположение каналов : Front: L C R, Side: L R, LFE
Частота : 48,0 КГц
Битовая глубина : 16 бит
Размер потока : 175 Мбайт (12%)
Выравнивание : Разделение по промежуткам
Продолжительность промежутка : 42 мс. (1,00 видеокадр)
Время предзагрузки промежутка : 500 мс.

Скриншот c названием фильма

Скриншоты

Скачать

Скачать торрент!

Как скачивать? · Что такое торрент? · Рейтинг и ограничения

Сайт не распространяет и не хранит электронные версии произведений, а лишь предоставляет доступ к создаваемому пользователями каталогу ссылок на торрент-файлы, которые содержат только списки хеш-сумм

[Профиль] [ЛС]
Показать сообщения:    
Ответить на тему

Текущее время: Сегодня 13:42

Часовой пояс: GMT + 4



Вы не можете начинать темы
Вы не можете отвечать на сообщения
Вы не можете редактировать свои сообщения
Вы не можете удалять свои сообщения
Вы не можете голосовать в опросах
Вы не можете прикреплять файлы к сообщениям
Вы не можете скачивать файлы