Уйти, чтобы остаться (Алина Чеботарёва) [2013, Мелодрама, SATRip]

Ответить на тему
 
Автор Сообщение

user ®

Стаж: 7 лет 7 месяцев

Сообщений: 20008

Пост Пост: #1 от 23-Дек-2013 02:50

[Цитировать]

Уйти, чтобы остаться
Жанр: Мелодрама
Год выпуска: 2013
Продолжительность: 01:32:00
Режиссёр: Алина Чеботарёва
В ролях: Любава Грешнова, Андрей Финягин, Александр Устюгов, Владимир Носик, Нина Касторф, Виталина Библив, Анастасия Касилова, Екатерина Кистень, Алексей Смолка, Михаил Жонин
Описание: Где черпают вдохновение писатели? Андрей Градов считает, что тихое местечко с рыбным озером вдали от цивилизации, ему как раз подходит. С одним условием: если не приходится спасать из этого озера утопленниц. А что делать, если "русалка" красива, загадочна и ничего не помнит? А ты отрезан от большого мира непрекращающимся проливным дождем и размытыми дорогами? Андрею долго ответ искать не надо. Как истинный писатель, он превращает спасенную красавицу в свою музу.
Но рано или поздно любой отпуск, как и дождь, заканчивается. И настает время возвращаться в собственную, а не выдуманную тобой, историю. И часть этой истории – твое прошлое. А также тайны прошлого твоей музы.По силам ли Андрею разгадать эти тайны? Найдется ли в его настоящем место для загадочной нимфы? Найдет ли она себя рядом с ним?
Сэмпл: http://multi-up.com/934623
Качество видео: SATRip
Формат видео: AVI
Видео: XviD, 640x336, 25.00fps, 936 Кбит/сек, 0.192 bit/pixel
Аудио: MP3, 48000 Hz, stereo, 192 Кбит/сек

MediaInfo

Общее
Полное имя : R:\Сериалы\Фильмы\Уйти, чтобы остаться.2013.XviD.SATRip.by.simka_745 МБ.avi
Формат : AVI
Формат/Информация : Audio Video Interleave
Размер файла : 748 Мбайт
Продолжительность : 1 ч. 31 м.
Общий поток : 1138 Кбит/сек
Программа кодирования : VirtualDubMod 1.5.10.3 | www.virtualdub-fr.org || (build 2550/release)
Библиотека кодирования : VirtualDubMod build 2550/release
Видео
Идентификатор : 0
Формат : MPEG-4 Visual
Профиль формата : Advanced Simple@L5
Параметр BVOP формата : 1
Параметр QPel формата : Нет
Параметр GMC формата : Без точки перехода
Параметр матрицы формата : Default (H.263)
Идентификатор кодека : XVID
Идентификатор кодека/Подсказка : XviD
Продолжительность : 1 ч. 31 м.
Битрейт : 936 Кбит/сек
Ширина : 640 пикселей
Высота : 336 пикселей
Соотношение сторон : 1,905
Частота кадров : 25,000 кадров/сек
Цветовое пространство : YUV
Субдискретизация насыщенности : 4:2:0
Битовая глубина : 8 бит
Тип развёртки : Прогрессивная
Метод сжатия : С потерями
Бит/(Пиксели*Кадры) : 0.174
Размер потока : 615 Мбайт (82%)
Библиотека кодирования : XviD 1.2.1 (UTC 2008-12-04)
Аудио
Идентификатор : 1
Формат : MPEG Audio
Версия формата : Version 1
Профиль формата : Layer 3
Режим : Joint stereo
Расширение режима : MS Stereo
Идентификатор кодека : 55
Идентификатор кодека/Подсказка : MP3
Продолжительность : 1 ч. 31 м.
Вид битрейта : Постоянный
Битрейт : 192 Кбит/сек
Каналы : 2 канала
Частота : 48,0 КГц
Метод сжатия : С потерями
Размер потока : 126 Мбайт (17%)
Выравнивание : Соединение по промежуткам
Продолжительность промежутка : 40 мс. (1,00 видеокадр)
Время предзагрузки промежутка : 504 мс.
Библиотека кодирования : LAME3.99r
Настройки программы : -m j -V 4 -q 2 -lowpass 18.6 -b 192

Скриншот c названием фильма

Скриншоты

Релиз группы::
Скачать

Скачать торрент!

Как скачивать? · Что такое торрент? · Рейтинг и ограничения

Сайт не распространяет и не хранит электронные версии произведений, а лишь предоставляет доступ к создаваемому пользователями каталогу ссылок на торрент-файлы, которые содержат только списки хеш-сумм

[Профиль] [ЛС]
Показать сообщения:    
Ответить на тему

Текущее время: Сегодня 04:23

Часовой пояс: GMT + 4



Вы не можете начинать темы
Вы не можете отвечать на сообщения
Вы не можете редактировать свои сообщения
Вы не можете удалять свои сообщения
Вы не можете голосовать в опросах
Вы не можете прикреплять файлы к сообщениям
Вы не можете скачивать файлы